Jim Black Trio with Jim Black, Elias Stemeseder, Thomas Morgan - Reckon (2020) [Official Digital Download 24/88]

Posted By: SERTiL
Jim Black Trio with Jim Black, Elias Stemeseder, Thomas Morgan - Reckon (2020) [Official Digital Download 24/88]

Jim Black Trio with Jim Black, Elias Stemeseder, Thomas Morgan - Reckon (2020)
FLAC (tracks) 24-bit/88.2 kHz | Time - 47:10 minutes | 951 MB
Studio Master, Official Digital Download | Artwork: Front Cover

Since the nineties, the drummer and bandleader Jim Black has been one of the most influential figures of progressive jazz. On his Intakt Records debut, Jim Black plays with the acclaimed young pianist Elias Stemeseder and highly in-demand New York bass player Thomas Morgan contemporary jazz with distinctive arrangements, complex rhythms and expressive improvisations.

Hank Shteamer writes in the linernotes: "The Constant, a suitelike collection of 10 new pieces, is a meditation on song – a celebration of plain-spoken melody but also an interrogation of the fragility of musical order. The Constant is a narrative of competing currents. On one hand, there is melody, most prominently a wistful, winding line that appears in opening track “High” and reoccurs throughout the album. As “High” begins, we hear Morgan dreamily plucking out this theme. The drummer, using brushes, adds whispering free-time textures, while the pianist makes his own way toward the motif. But there is also a gentle turbulence at work – a sense of the elusiveness and instability of song."

Tracklist:
01. Astrono Said So (5:42)
02. Tripped Overhue (5:22)
03. Tighter Whined (2:10)
04. Spooty and Snofer (5:19)
05. Very Query (4:27)
06. Focus On Tomorrow (2:39)
07. Next Razor World (3:43)
08. Neural Holiday (3:37)
09. Dancy Clear Ends (5:03)
10. What You Are Made From (2:57)
11. This One and This Too (6:13)

Personnel:
Jim Black: Drums, Composition
Elias Stemeseder: Piano
Thomas Morgan: Bass

foobar2000 1.3.7 / Dynamic Range Meter 1.1.1
log date: 2020-01-14 18:40:54

––––––––––––––––––––––––––––––––––––––––
Analyzed: Jim Black Trio with Jim Black, Elias Stemeseder, Thomas Morgan / Reckon
––––––––––––––––––––––––––––––––––––––––

DR Peak RMS Duration Track
––––––––––––––––––––––––––––––––––––––––
DR8 -0.30 dB -9.89 dB 5:42 01-Astrono Said So
DR8 -0.31 dB -10.81 dB 5:22 02-Tripped Overhue
DR8 -0.31 dB -10.04 dB 2:10 03-Tighter Whined
DR8 -0.31 dB -10.77 dB 5:19 04-Spooty and Snofer
DR10 -0.31 dB -12.71 dB 4:27 05-Very Query
DR11 -0.31 dB -13.27 dB 2:39 06-Focus On Tomorrow
DR10 -0.31 dB -11.84 dB 3:43 07-Next Razor World
DR12 -0.31 dB -15.62 dB 3:37 08-Neural Holiday
DR9 -0.31 dB -11.43 dB 5:03 09-Dancy Clear Ends
DR12 -0.31 dB -15.26 dB 2:57 10-What You Are Made From
DR9 -0.31 dB -10.95 dB 6:13 11-This One and This Too
––––––––––––––––––––––––––––––––––––––––

Number of tracks: 11
Official DR value: DR10

Samplerate: 88200 Hz
Channels: 2
Bits per sample: 24
Bitrate: 2919 kbps
Codec: FLAC
================================================================================


Thanks to the Original customer.