Tags
Language
Tags

Renata Zeiguer - Picnic in the Dark (2022)

Posted By: v3122
Renata Zeiguer - Picnic in the Dark (2022)

Renata Zeiguer - Picnic in the Dark (2022)
FLAC (Tracks) 24-bit/48 kHz | Official Digital Download | Time: 00:46:22
Dream Pop, Indie Pop | Northern Spy | ~ 546 Mb

‘Picnic in the Dark’ is the enchanting new album from Renata Zeiguer, her second full length release for Northern Spy. The album follows Zeiguer through a dreamworld of magical realism as she navigates her memories and seeks to confront inherited dysfunctional patterns head-on. As Zeiguer reconciles her childhood and her adult lives with careful compassion, ‘Picnic in the Dark’ reveals itself as an album not only of transformation, but of healing and self-actualization.

Zeiguer takes us by the hand and leads us into her surreal storybook realm by way of lead single “Sunset Boulevard”. We are guided through the metamorphosis of a caterpillar, a kaleidoscopic metaphor for the process of letting go of the seemingly safe and familiar in pursuit of a healthier and freer life. Throughout the album, Zeiguer’s free-associative approach transports the listener from sylvan reverie in “Evergreen” into disturbing fever dreams in “Burning Castle”. Her intuitive gift for storytelling, through both her words and music, is rare: narrative journeys seem to unfold spontaneously over the length of her songs. For instance, “Whack-a-mole”, a restless hunt for her innermost grief, slowly blossoms from a menacing nocturnal spy chase into a celestial wash of shimmering guitars and synths that shine like fireflies in an evening mist.

In collaboration with co-producer and old friend Sam Griffin Owens (Sam Evian), Zeiguer sonically invokes the meeting point of memories and dreams, calling to mind Broadcast, Cindy Lee, or David Lynch’s multidisciplinary ventures. With generous splashes of spring reverb, ghostly vocal harmonies, antique drum machines, cinematic strings, and the comforting warbles of synthesized organ, all bolstered by a tight indie rock sensibility, the sonic palette of ‘Picnic in the Dark’ is magically anachronistic.

Fittingly, Zeiguer incorporates the sounds of her childhood—from jazz standards to classical music—but most notably the bossa nova greats such as João Gilberto, who married musical playfulness with lyrical poignancy. She shares Gilberto’s subtlety and intention of approach in every aspect of her music-making, from her hushed, deliberate vocals to her gorgeously understated arrangements and fine-tuned vintage guitar sounds. Most remarkably of all, Zeiguer has a masterful command of the harmonic and rhythmic language of bossa nova, fully capturing its romantic spirit. This is showcased in the impishly shifting ditty “Mark the Date”, a delirious dance through memory and time, and the yearning chromaticism of “Carmen”, an achingly beautiful plea for honesty. The album’s tranquil epilogue, “Primavera”, a direct homage to Gilberto’s heartfelt intimacy, brings Zeiguer’s journey full circle, passing through seasons of life and death and returning to the rebirth of spring at last.

In ‘Picnic in the Dark’, Zeiguer has lovingly crafted a volume of fairy tales, torchlight glowing through its golden leaves. The image conjured by that very title reveals its essence and purpose: to allow the artist, like a child lost in the pages of a story, to safely venture into the shadowy, painful corners of her psyche with a lightness of spirit and fantastical whimsy.
Renata Zeiguer - Picnic in the Dark (2022):

Tracklist:

01. Sunset Boulevard (04:58)
02. Eloise (04:00)
03. Evergreen (03:08)
04. Whack-a-mole (04:29)
05. Picnic in the Dark (03:51)
06. Mark the Date (02:28)
07. Child (04:49)
08. Burning Castle (04:25)
09. Avalanche (03:33)
10. Carmen (04:09)
11. Alone With Someone Else (03:31)
12. Primavera (03:08)

foobar2000 1.6.6 / Dynamic Range Meter 1.1.1
log date: 2022-04-10 09:06:02

––––––––––––––––––––––––––––––––––––––––
Analyzed: Renata Zeiguer / Picnic in the Dark
––––––––––––––––––––––––––––––––––––––––

DR Peak RMS Duration Track
––––––––––––––––––––––––––––––––––––––––
DR5 -0.11 dB -6.53 dB 4:58 01-Sunset Boulevard
DR6 -0.11 dB -7.47 dB 4:00 02-Eloise
DR5 -0.11 dB -6.99 dB 3:08 03-Evergreen
DR5 -0.11 dB -6.67 dB 4:29 04-Whack-a-mole
DR5 -0.11 dB -7.38 dB 3:51 05-Picnic in the Dark
DR4 -0.11 dB -6.19 dB 2:28 06-Mark the Date
DR5 -0.11 dB -7.73 dB 4:49 07-Child
DR7 -0.11 dB -9.26 dB 4:25 08-Burning Castle
DR7 -0.11 dB -8.73 dB 3:33 09-Avalanche
DR7 -0.11 dB -9.73 dB 4:09 10-Carmen
DR5 -0.11 dB -7.22 dB 3:31 11-Alone With Someone Else
DR8 -0.11 dB -9.85 dB 3:08 12-Primavera
––––––––––––––––––––––––––––––––––––––––

Number of tracks: 12
Official DR value: DR6
Samplerate: 48000 Hz
Channels: 2
Bits per sample: 24
Bitrate: 1534 kbps
Codec: FLAC

All thanks go to the original releaser

Download Renata Zeiguer - Picnic in the Dark (2022):