Renata Scotto, Carlo Bergonzi & Sir John Barbirolli - Puccini - Madama Butterfly (1967/2020) [Official Digital Download 24/192]

Posted By: pyatak
Renata Scotto, Carlo Bergonzi & Sir John Barbirolli - Puccini - Madama Butterfly (1967/2020) [Official Digital Download 24/192]

Renata Scotto, Carlo Bergonzi & Sir John Barbirolli - Puccini - Madama Butterfly (1967/2020) [Official Digital Download 24/192]
FLAC (tracks) 24-bit/192 kHz | Front Cover | Time - 02:21:33 minutes | 5,58 GB
Classical | Label: Warner Classics, Official Digital Download

Born in London of Italian-French parents, Sir John Barbirolli (1899–1970) trained as a cellist and played in theatre and café orchestras before joining the Queen’s Hall Orchestra under Sir Henry Wood in 1916. His conducting career began with the formation of his own orchestra in 1924, and between 1926 and 1933 he was active as an opera conductor at Covent Garden and elsewhere. Orchestral appointments followed: the Scottish Orchestra (1933–36), the New York Philharmonic (1936–42), the Hallé Orchestra (1943–70) and the Houston Symphony (1961–67). Barbirolli guest conducted many of the world’s leading orchestras and was especially admired as an interpreter of the music of Mahler, Sibelius, Elgar, Vaughan Williams, Delius, Puccini and Verdi. He made many outstanding recordings, including the complete Brahms and Sibelius symphonies, as well as operas by Verdi and Puccini and much English repertoire.

Barbirolli was a late convert to the music of Gustav Mahler. He had first come across it in 1930 when the Fourth Symphony, as heard for the first time at somebody else’s rehearsal, struck him as being thin, certainly by comparison with Berlioz and Wagner. After some early excursions at the beginning of his career – such as in 1931, when he conducted the Kindertotenlieder for Elena Gerhardt at a Royal Philharmonic Society concert in London – Mahler scarcely even figured in his programmes until 1946, when he included Das Lied von der Erde in his third season with the Halle Orchestra. Then in 1952 his friend, the critic Neville Cardus, recalling that Sir Hamilton Harty had given England its first hearing of the Ninth Symphony during his reign as Hallé conductor (1920–33), urged Barbirolli to consider conducting it himself. It was, said Cardus, “the ideal work” for him. Two years later the thing happened: moreover, that first-ever performance by Barbirolli of a Mahler symphony opened the floodgates to a 16-year period in which he embraced them all save No.8. The First, Fifth, Sixth and Ninth he subsequently recorded commercially, and radio recordings of several of the others have also appeared on CD.

TRACKLIST

1. Sir John Barbirolli - Madama Butterfly, Act I: "E soffitto… e pareti" (Pinkerton, Goro)
2. Sir John Barbirolli - Madama Butterfly, Act I: "Questa è la cameriera" (Goro, Pinkerton, Suzuki)
3. Sir John Barbirolli - Madama Butterfly, Act I: "Che guardi?" - "Se non giunge ancor la sposa" (Pinkerton, Goro, Sharpless)
4. Sir John Barbirolli - Madama Butterfly, Act I: "Dovunque al mondo" (Pinkerton, Goro, Sharpless)
5. Sir John Barbirolli - Madama Butterfly, Act I: "Quale smania vi prende!" (Sharpless, Pinkerton)
6. Sir John Barbirolli - Madama Butterfly, Act I: "Ecco! Son giunta al sommo del pendio" (Goro, Coro, Butterfly, Pinkerton)
7. Sir John Barbirolli - Madama Butterfly, Act I: "Gran ventura" (Butterfly, Coro, Pinkerton, Sharpless, Goro)
8. Sir John Barbirolli - Madama Butterfly, Act I: "L'imperial commissario" (Goro, Pinkerton, Coro, Butterfly, Sharpless)
9. Sir John Barbirolli - Madama Butterfly, Act I: "Vieni, amor mio!" (Pinkerton, Butterfly, Goro)
10. Sir John Barbirolli - Madama Butterfly, Act I: "Ieri son salita tutta sola" (Butterfly)
12. Sir John Barbirolli - Madama Butterfly, Act I: "Ed eccoci in famiglia" (Pinkerton, Coro, Bonze, Butterfly, Suzuki)
13. Sir John Barbirolli - Madama Butterfly, Act I: "Bimba, bimba, non piangere" (Pinkerton, Coro, Butterfly, Suzuki)
14. Sir John Barbirolli - Madama Butterfly, Act I: "Viene la sera" (Pinkerton, Butterfly, Suzuki)
15. Sir John Barbirolli - Madama Butterfly, Act I: "Quest'obi pomposa" (Butterfly, Pinkerton)
16. Sir John Barbirolli - Madama Butterfly, Act I: "Bimba dalgi occhi pieni di malia" (Pinkerton, Butterfly)
17. Sir John Barbirolli - Madama Butterfly, Act I: "Vogliatemi bene, un bene piccolino" (Butterfly, Pinkerton)
18. Sir John Barbirolli - Madama Butterfly, Act I: "Vieni, vieni" - "Via dall'anima in pena" (Pinkerton, Butterfly)
19. Sir John Barbirolli - Madama Butterfly, Act II: "E lzaghi ed Izanami" (Suzuki, Butterfly)
20. Sir John Barbirolli - Madama Butterfly, Act II: "Suzuki, è lungi la misera" (Butterfly, Suzuki)
21. Sir John Barbirolli - Madama Butterfly, Act II: "Un bel dì vedremo" (Butterfly)
22. Sir John Barbirolli - Madama Butterfly, Act II: "C'è. Entrate" (Goro, Sharpless, Butterfly)
23. Sir John Barbirolli - Madama Butterfly, Act II: "Ah sì, Goro, appena F. B. Pinkerton fu in mare" (Butterfly, Goro, Yamadori, Sharpless)
24. Sir John Barbirolli - Madama Butterfly, Act II: "Si sa che aprir la porta" (Butterfly, Sharpless, Yamadori, Goro)
25. Sir John Barbirolli - Madama Butterfly, Act II: "Ora a noi" (Sharpless, Butterfly)
26. Sir John Barbirolli - Madama Butterfly, Act II: "Qui troncarla conviene" (Sharpless, Butterfly)
27. Sir John Barbirolli - Madama Butterfly, Act II: "E questo? E questo?" (Butterfly, Sharpless)
28. Sir John Barbirolli - Madama Butterfly, Act II: "Che tua madre dovrà" (Butterfly, Sharpless)
29. Sir John Barbirolli - Madama Butterfly, Act II: "Io scendo al piano" (Sharpless, Butterfly)
30. Sir John Barbirolli - Madama Butterfly, Act II: "Vespa! Rospo maledetto!" (Suzuki, Butterfly, Goro)
31. Sir John Barbirolli - Madama Butterfly, Act II: "Una nave da guerra" (Suzuki, Butterfly)
32. Sir John Barbirolli - Madama Butterfly, Act II: "Scuoti quella fronda di ciliegio" (Butterfly, Suzuki)
33. Sir John Barbirolli - Madama Butterfly, Act II: "Oh vienmi ad adornar" (Butterfly, Suzuki)
34. Sir John Barbirolli - Madama Butterfly, Act II: Coro a bocca chiusa (Coro)
35. Sir John Barbirolli - Madama Butterfly, Act III: Introduzione - "Oh eh! Oh eh! Oh eh!" (Chorus)
36. Sir John Barbirolli - Madama Butterfly, Act III: "Già il sole!" (Suzuki, Butterfly)
37. Sir John Barbirolli - Madama Butterfly, Act III: "Chi sia? Oh!" - "Zitta! Zitta!" (Suzuki, Pinkerton, Butterfly)
38. Sir John Barbirolli - Madama Butterfly, Act III: "Io so che alle sue pene" (Sharpless, Suzuki)
39. Sir John Barbirolli - Madama Butterfly, Act III: "Addio, fiorito asil" (Pinkerton, Sharpless)
40. Sir John Barbirolli - Madama Butterfly, Act III: "Glielo dirai?" (Kate, Suzuki, Butterfly)
41. Sir John Barbirolli - Madama Butterfly, Act III: "Tu, Suzuki, che sei tanto buona" (Butterfly, Suzuki, Sharpless, Kate)
42. Sir John Barbirolli - Madama Butterfly, Act III: "Come una mosca prigioniera" (Suzuki, Butterfly)
43. Sir John Barbirolli - Madama Butterfly, Act III: "Con onor muore" (Butterfly)

foobar2000 1.6.2 / Dynamic Range Meter 1.1.1
log date: 2021-01-12 15:31:23

––––––––––––––––––––––––––––––––––––––––
Analyzed: Sir John Barbirolli / Puccini: Madama Butterfly
––––––––––––––––––––––––––––––––––––––––

DR Peak RMS Duration Track
––––––––––––––––––––––––––––––––––––––––
DR11 -3.35 dB -19.99 dB 2:22 01-Madama Butterfly, Act I: "E soffitto… e pareti" (Pinkerton, Goro)
DR14 -2.67 dB -22.85 dB 1:51 02-Madama Butterfly, Act I: "Questa è la cameriera" (Goro, Pinkerton, Suzuki)
DR13 -1.90 dB -20.52 dB 2:41 03-Madama Butterfly, Act I: "Che guardi?" - "Se non giunge ancor la sposa" (Pinkerton, Goro, Sharpless)
DR11 -2.87 dB -18.81 dB 4:08 04-Madama Butterfly, Act I: "Dovunque al mondo" (Pinkerton, Goro, Sharpless)
DR9 -2.49 dB -17.06 dB 3:41 05-Madama Butterfly, Act I: "Quale smania vi prende!" (Sharpless, Pinkerton)
DR10 -2.71 dB -19.27 dB 4:07 06-Madama Butterfly, Act I: "Ecco! Son giunta al sommo del pendio" (Goro, Coro, Butterfly, Pinkerton)
DR16 -2.29 dB -24.04 dB 3:48 07-Madama Butterfly, Act I: "Gran ventura" (Butterfly, Coro, Pinkerton, Sharpless, Goro)
DR10 -1.33 dB -16.79 dB 3:21 08-Madama Butterfly, Act I: "L'imperial commissario" (Goro, Pinkerton, Coro, Butterfly, Sharpless)
DR13 -4.52 dB -23.19 dB 2:47 09-Madama Butterfly, Act I: "Vieni, amor mio!" (Pinkerton, Butterfly, Goro)
DR9 -2.05 dB -16.76 dB 1:47 10-Madama Butterfly, Act I: "Ieri son salita tutta sola" (Butterfly)
DR9 -0.23 dB -15.53 dB 3:39 12-Madama Butterfly, Act I: "Ed eccoci in famiglia" (Pinkerton, Coro, Bonze, Butterfly, Suzuki)
DR13 -4.40 dB -23.41 dB 2:07 13-Madama Butterfly, Act I: "Bimba, bimba, non piangere" (Pinkerton, Coro, Butterfly, Suzuki)
DR13 -3.68 dB -22.92 dB 1:51 14-Madama Butterfly, Act I: "Viene la sera" (Pinkerton, Butterfly, Suzuki)
DR10 -3.23 dB -19.40 dB 1:57 15-Madama Butterfly, Act I: "Quest'obi pomposa" (Butterfly, Pinkerton)
DR9 -2.22 dB -16.26 dB 3:45 16-Madama Butterfly, Act I: "Bimba dalgi occhi pieni di malia" (Pinkerton, Butterfly)
DR9 -2.25 dB -16.50 dB 3:05 17-Madama Butterfly, Act I: "Vogliatemi bene, un bene piccolino" (Butterfly, Pinkerton)
DR7 -0.77 dB -14.49 dB 4:52 18-Madama Butterfly, Act I: "Vieni, vieni" - "Via dall'anima in pena" (Pinkerton, Butterfly)
DR14 -4.39 dB -24.78 dB 2:34 19-Madama Butterfly, Act II: "E lzaghi ed Izanami" (Suzuki, Butterfly)
DR11 -2.93 dB -20.09 dB 4:31 20-Madama Butterfly, Act II: "Suzuki, è lungi la misera" (Butterfly, Suzuki)
DR9 -1.49 dB -16.83 dB 4:45 21-Madama Butterfly, Act II: "Un bel dì vedremo" (Butterfly)
DR13 -4.63 dB -23.33 dB 3:48 22-Madama Butterfly, Act II: "C'è. Entrate" (Goro, Sharpless, Butterfly)
DR10 -2.06 dB -17.24 dB 2:43 23-Madama Butterfly, Act II: "Ah sì, Goro, appena F. B. Pinkerton fu in mare" (Butterfly, Goro, Yamadori, Sharpless)
DR12 -2.59 dB -21.06 dB 3:02 24-Madama Butterfly, Act II: "Si sa che aprir la porta" (Butterfly, Sharpless, Yamadori, Goro)
DR13 -3.96 dB -22.87 dB 3:01 25-Madama Butterfly, Act II: "Ora a noi" (Sharpless, Butterfly)
DR11 -3.21 dB -20.04 dB 2:58 26-Madama Butterfly, Act II: "Qui troncarla conviene" (Sharpless, Butterfly)
DR7 0.00 dB -13.44 dB 2:17 27-Madama Butterfly, Act II: "E questo? E questo?" (Butterfly, Sharpless)
DR8 -3.03 dB -16.15 dB 2:58 28-Madama Butterfly, Act II: "Che tua madre dovrà" (Butterfly, Sharpless)
DR8 -2.44 dB -16.83 dB 1:37 29-Madama Butterfly, Act II: "Io scendo al piano" (Sharpless, Butterfly)
DR10 -0.68 dB -15.17 dB 1:43 30-Madama Butterfly, Act II: "Vespa! Rospo maledetto!" (Suzuki, Butterfly, Goro)
DR6 -2.07 dB -13.55 dB 2:26 31-Madama Butterfly, Act II: "Una nave da guerra" (Suzuki, Butterfly)
DR11 -2.74 dB -18.79 dB 5:05 32-Madama Butterfly, Act II: "Scuoti quella fronda di ciliegio" (Butterfly, Suzuki)
DR14 -3.29 dB -23.25 dB 5:36 33-Madama Butterfly, Act II: "Oh vienmi ad adornar" (Butterfly, Suzuki)
DR12 -18.86 dB -36.13 dB 3:25 34-Madama Butterfly, Act II: Coro a bocca chiusa (Coro)
DR10 -1.82 dB -17.64 dB 7:45 35-Madama Butterfly, Act III: Introduzione - "Oh eh! Oh eh! Oh eh!" (Chorus)
DR11 -8.01 dB -25.86 dB 2:16 36-Madama Butterfly, Act III: "Già il sole!" (Suzuki, Butterfly)
DR13 -3.01 dB -22.06 dB 2:34 37-Madama Butterfly, Act III: "Chi sia? Oh!" - "Zitta! Zitta!" (Suzuki, Pinkerton, Butterfly)
DR8 -1.98 dB -15.39 dB 3:51 38-Madama Butterfly, Act III: "Io so che alle sue pene" (Sharpless, Suzuki)
DR6 -2.65 dB -13.42 dB 1:54 39-Madama Butterfly, Act III: "Addio, fiorito asil" (Pinkerton, Sharpless)
DR12 -3.06 dB -21.43 dB 3:05 40-Madama Butterfly, Act III: "Glielo dirai?" (Kate, Suzuki, Butterfly)
DR13 -3.46 dB -23.18 dB 4:36 41-Madama Butterfly, Act III: "Tu, Suzuki, che sei tanto buona" (Butterfly, Suzuki, Sharpless, Kate)
DR11 -2.07 dB -19.00 dB 3:06 42-Madama Butterfly, Act III: "Come una mosca prigioniera" (Suzuki, Butterfly)
DR8 -0.03 dB -13.82 dB 5:36 43-Madama Butterfly, Act III: "Con onor muore" (Butterfly)
––––––––––––––––––––––––––––––––––––––––

Number of tracks: 42
Official DR value: DR11

Samplerate: 192000 Hz
Channels: 2
Bits per sample: 24
Bitrate: 5520 kbps
Codec: FLAC
================================================================================



Thanks to the Original customer.