Rolf & Joachim Kühn Quintet & Karlhanns Berger - Transfiguration (Remastered) (2014/2020) [Official Digital Download 24/88]

Posted By: pyatak
Rolf & Joachim Kühn Quintet & Karlhanns Berger - Transfiguration (Remastered) (2014/2020) [Official Digital Download 24/88]

Rolf & Joachim Kühn Quintet & Karlhanns Berger - Transfiguration (Remastered) (2014/2020) [Official Digital Download 24/88]
FLAC (tracks) 24-bit/88.2 kHz | Front Cover | Time - 44:04 minutes | 858 MB
Jazz | Label: MPS, Official Digital Download

Digitally remastered! A modern Jazz classic for the legendary Saba Label. Rolf Kühn-clarinet & bass clarinet, Joachim Kühn-piano, Karlhanns Berger-vibes, Bab Guérin - bass, Aldo Romano - drums. Produced by Joachim Ernst Berendt. Recorded January 19, 1967, at Studio Hamburg.

Before my brother Joachim left the GDR in 1965, I often played music with his Trio in Leipzig, we also made recordings for the Mitteldeutscher Rundfunk. Even an Amiga LP (Solarius) was created back then. But Transfiguration became our very first joint record "in the West". Joachim Ernst Berendt had the idea for this LP at a free Jazz meeting in Baden Baden. He brought Joachim and me together with Karlhanns Berger, Bab Guérin and Aldo Romano to play modern with Free Jazz elements in the original Benny Goodman quintet line-up (clarinet, Piano, vibraphone, Bass, drums). Throughout his life Berendt was in search of sounds, Jazz was very closely connected to spirituality and freedom for him. Through his death, not only the jazz world has lost an important personality.

TRACKLIST

1 Transfiguration
2 Lunch Date
3 Solo Flights
4 But Strokes of Folk

foobar2000 1.3.16 / Dynamic Range Meter 1.1.1
log date: 2020-06-01 22:02:52

––––––––––––––––––––––––––––––––––––––––
Analyzed: Rolf & Joachim Kühn Quintet & Karlhanns Berger / Transfiguration (Remastered)
––––––––––––––––––––––––––––––––––––––––

DR Peak RMS Duration Track
––––––––––––––––––––––––––––––––––––––––
DR12 -1.39 dB -16.66 dB 13:54 01-Transfiguration
DR12 -0.78 dB -16.79 dB 8:27 02-Lunch Date
DR12 -1.11 dB -17.06 dB 12:40 03-Solo Flights
DR11 -1.00 dB -16.20 dB 9:06 04-But Strokes of Folk
––––––––––––––––––––––––––––––––––––––––

Number of tracks: 4
Official DR value: DR12

Samplerate: 88200 Hz
Channels: 2
Bits per sample: 24
Bitrate: 2643 kbps
Codec: FLAC
================================================================================



Thanks to the Original customer.