Sara K. - Water Falls (2002/2019) [Official Digital Download]

Posted By: Pisulik
Sara K. - Water Falls (2002/2019) [Official Digital Download]

Sara K. - Water Falls (2002/2019)
FLAC (tracks) 24-bit/44.1 kHz | Time - 48:23 minutes | 526 MB
Studio Master, Official Digital Download | Artwork: Front cover

Sara K.'s cd release, Water Falls, on Stockfisch Records (Germany) now available in the U.S. from CD Baby, is her best production to date. Her smoothe vocals and Chris Jones' guitar combined with Guenter Paulers' production expertise make for another soulful journey into Sara's voice, lyrics and music.

"Her songs glow and breathe." - ENTERTAINMENT WEEKLY

"Sara K's sweet, sultry voice is
immediately attractive." - THE PITTSBURGH PRESS

"True talent. Sara writes songs that
are thought-provoking, intelligent and full of substance." - PAC

"Sara's heartfelt poetry makes for required
listening in this day and age of highly
produced top 40 garble. Highly recommended." - NO NAME JAZZ

"Sara K's voice, her guitar playing and her
intricate melodies make the 50 plus minutes
go by too quickly." - BEST OF MUSIC '92, CD REVIEW

"Sara's vignettes are personal and romantic,
spun from a calm center that can only
house those with the sense to find it." - NEW REVIEW

"Not your garden variety audiophile chanteuse. A
wonderful vocalist." - HI FI NEWS
"File Sara K. under vocal folk jazz with panache." - LEAK MAGAZINE

"A very impressive sound…(she) has an excellent
style for what she is trying to do… tuneful and moving
…mixing genres well and is quite melodious." - DIRTY LINEN

"Her beautiful writing is something one must experience
themselves. Her high sweet but dirty voice is one not to
pass up. Her unique style of guitar and music in general
is one to take her much further than following the crowd
would." - BLUES ON STAGE

"Her lyrics paint a thousand textures of an
unbounded landscape." - WATERBUG MUSIC

"A beautiful, clear folk and jazzy vision." - the GAVIN REPORT

Tracklist:

1. Chatanooga Choo-Choo 01:25
2. Running Away from You 04:42
3. Turned My Upside Down 04:26
4. The Painter 03:35
5. Water Falls 02:43
6. (Would You) Break My Heart 03:44
7. Step on Mine 03:26
8. Destination 04:12
9. All Your Love (Turned to Passion) 05:18
10. In the Fall (Maggie's Dream) 04:36
11. Blind Hearted 05:21
12. Anymore 04:55

foobar2000 1.3.7 / Dynamic Range Meter 1.1.1
log date: 2019-09-17 19:00:41

––––––––––––––––––––––––––––––––––––––––
Analyzed: Sara K. / Water Falls
––––––––––––––––––––––––––––––––––––––––

DR Peak RMS Duration Track
––––––––––––––––––––––––––––––––––––––––
DR13 -3.01 dB -20.77 dB 1:25 01-Chatanooga Choo-Choo
DR8 -0.11 dB -10.56 dB 4:43 02-Running Away from You
DR7 -0.31 dB -10.67 dB 4:26 03-Turned My Upside Down
DR6 -1.97 dB -9.83 dB 3:36 04-The Painter
DR7 -1.53 dB -11.66 dB 2:44 05-Water Falls
DR8 -0.58 dB -10.93 dB 3:44 06-(Would You) Break My Heart
DR7 -0.54 dB -10.14 dB 3:26 07-Step on Mine
DR8 -1.09 dB -12.26 dB 4:12 08-Destination
DR8 -0.22 dB -10.83 dB 5:19 09-All Your Love (Turned to Passion)
DR7 -0.33 dB -9.55 dB 4:36 10-In the Fall (Maggie's Dream)
DR7 -0.65 dB -9.74 dB 5:21 11-Blind Hearted
DR8 -0.60 dB -10.80 dB 4:55 12-Anymore
––––––––––––––––––––––––––––––––––––––––

Number of tracks: 12
Official DR value: DR8

Samplerate: 44100 Hz
Channels: 2
Bits per sample: 24
Bitrate: 1555 kbps
Codec: FLAC
================================================================================


All thanks go to the original releaser