Sasha Miller - Jazz Therapy (2021) [Official Digital Download]

Posted By: pyatak
Sasha Miller - Jazz Therapy (2021) [Official Digital Download]

Sasha Miller - Jazz Therapy (2021) [Official Digital Download]
FLAC (tracks) 24-bit/44.1 kHz | Front Cover | Time - 21:30 minutes | 191 MB
Jazz | Label: Blue Note, Official Digital Download

Sasha Miller is the pseudonym of American fantasy writer Georgia Myrle Miller (born October 15, 1933 in Erick, Oklahoma). She has also written under the names Georgia Sallaska, Myrle Benedict, and G. S. Madden.

In 1958 and 1959 she published a trio of stories in Fantastic Universe as Myrle Benedict: "Sit by the Fire", "The Dancing that We Did", and "The Comanleigh". Fantastic editor Hans Stefan Santesson included "Sit by the Fire" in his best of anthology The Fantastic Universe Omnibus (1960).[3]:370 As Georgia Sallaska, she wrote three novels of historical fiction: Three Ships and Three Kings (1969), The Last Heracles (1971), and Priam's Daughter (1974).

In the 1980s she began publishing as Sasha Miller. She wrote a number of works set in Andre Norton's Witch World, including GURPS Witch World (1989) with Ben W. Miller, a rule book for the GURPS role-playing game system, and the novel Falcon Magic (1994), published in the On Wings of Magic omnibus. She also collaborated with Norton on the five novels in the Cycle of Oak, Yew, Ash, and Rowan series. Miller's fantasy novel Ladylord (1995), set in medieval Japan, was praised by reviewers.

TRACKLIST

1. Sasha Miller - Black Hole
2. Sasha Miller - Born Again
3. Sasha Miller - Elisir
4. Sasha Miller - Forever
5. Sasha Miller - I Love Sax
6. Sasha Miller - Ink On Paper
7. Sasha Miller - Jazz Therapy
8. Sasha Miller - My Illness
9. Sasha Miller - Save Me Music
10. Sasha Miller - Sleepless Nights

foobar2000 1.6.2 / Dynamic Range Meter 1.1.1
log date: 2021-06-07 17:50:22

––––––––––––––––––––––––––––––––––––––––
Analyzed: Sasha Miller / Jazz Therapy
––––––––––––––––––––––––––––––––––––––––

DR Peak RMS Duration Track
––––––––––––––––––––––––––––––––––––––––
DR14 -4.43 dB -21.45 dB 3:22 01-Black Hole
DR11 -3.51 dB -15.72 dB 1:46 02-Born Again
DR13 -6.87 dB -21.60 dB 2:31 03-Elisir
DR12 -5.76 dB -20.04 dB 2:14 04-Forever
DR11 -5.55 dB -17.94 dB 1:17 05-I Love Sax
DR12 -6.24 dB -19.31 dB 3:33 06-Ink On Paper
DR14 -2.60 dB -19.19 dB 1:41 07-Jazz Therapy
DR15 -8.92 dB -25.98 dB 2:04 08-My Illness
DR14 -3.64 dB -20.55 dB 1:23 09-Save Me Music
DR14 -8.57 dB -24.63 dB 1:43 10-Sleepless Nights
––––––––––––––––––––––––––––––––––––––––

Number of tracks: 10
Official DR value: DR13

Samplerate: 44100 Hz
Channels: 2
Bits per sample: 24
Bitrate: 1283 kbps
Codec: FLAC
================================================================================



Thanks to the Original customer.