Shaun O'Reilly - Burn the Boat (2021) [Official Digital Download]

Posted By: pyatak
Shaun O'Reilly - Burn the Boat (2021) [Official Digital Download]

Shaun O'Reilly - Burn the Boat (2021) [Official Digital Download]
FLAC (tracks) 24-bit/44.1 kHz | Front Cover | Time - 37:00 minutes | 392 MB
Folk | Label: Vulgar Road Records, Official Digital Download

Shaun O'Reilly celebrates the release of his third album, Burn The Boat, with this intimate concert.

TRACKLIST

1. Shaun O'Reilly - Who the Hell?
2. Shaun O'Reilly - End of the Line
3. Shaun O'Reilly - Here’s to Years of Dogs Abuse
4. Shaun O'Reilly - Wild
5. Shaun O'Reilly - Lonely
6. Shaun O'Reilly - I’m Alright (What Can You Do?)
7. Shaun O'Reilly - Hey You, on My Grave
8. Shaun O'Reilly - What a State I Was in
9. Shaun O'Reilly - Woe Betide the Fool
10. Shaun O'Reilly - Slow Down Son

foobar2000 1.6.2 / Dynamic Range Meter 1.1.1
log date: 2021-06-23 17:38:14

––––––––––––––––––––––––––––––––––––––––
Analyzed: Shaun O'Reilly / Burn the Boat
––––––––––––––––––––––––––––––––––––––––

DR Peak RMS Duration Track
––––––––––––––––––––––––––––––––––––––––
DR7 -1.00 dB -9.70 dB 3:14 01-Who the Hell?
DR7 -1.82 dB -10.14 dB 3:15 02-End of the Line
DR10 -1.00 dB -12.92 dB 3:39 03-Here’s to Years of Dogs Abuse
DR7 -3.26 dB -12.09 dB 3:26 04-Wild
DR8 -0.14 dB -10.55 dB 4:03 05-Lonely
DR7 -1.00 dB -10.41 dB 4:04 06-I’m Alright (What Can You Do?)
DR8 -1.00 dB -11.93 dB 3:23 07-Hey You, on My Grave
DR8 -3.30 dB -13.81 dB 2:43 08-What a State I Was in
DR9 -0.53 dB -11.31 dB 3:06 09-Woe Betide the Fool
DR9 -3.18 dB -15.52 dB 6:10 10-Slow Down Son
––––––––––––––––––––––––––––––––––––––––

Number of tracks: 10
Official DR value: DR8

Samplerate: 44100 Hz
Channels: 2
Bits per sample: 24
Bitrate: 1350 kbps
Codec: FLAC
================================================================================



Thanks to the Original customer.