Tags
Language
Tags
February 2023
Su Mo Tu We Th Fr Sa
29 30 31 1 2 3 4
5 6 7 8 9 10 11
12 13 14 15 16 17 18
19 20 21 22 23 24 25
26 27 28 1 2 3 4

Shel Silverstein - Inside Folk Songs (1963/2021) [Official Digital Download 24/96]

Posted By: pyatak
Shel Silverstein - Inside Folk Songs (1963/2021) [Official Digital Download 24/96]

Shel Silverstein - Inside Folk Songs (1963/2021) [Official Digital Download 24/96]
FLAC (tracks) 24-bit/96 kHz | Front Cover | Time - 35:01 minutes | 573 MB
Folk, Jazz | Label: RevOla, Official Digital Download

Reissue of his 1962 album. The multi-talented writer-cartoonist singer Shel Silverstein's most durable legacy has been his work as a children's book author, but between 1959 and 1980, he released a variety of albums, dabbling in multiple genres: Jazz, Folk, Country, Rock. This album showcases his humorous, often topical lyrics, that range from silly to deep, like some of Tom Lehrer's best work.

TRACKLIST

1. Shel Silverstein - Bury Me In My Shades (Remastered)
2. Shel Silverstein - Have Another Espresso! (Remastered)
3. Shel Silverstein - Bananas (Remastered)
4. Shel Silverstein - Liz (Remastered)
5. Shel Silverstein - You're Always Welcome At Our House (Remastered)
6. Shel Silverstein - Civil War Song (Remastered)
7. Shel Silverstein - Boa Constrictor (Remastered)
8. Shel Silverstein - 25 Minutes To Go (Remastered)
9. Shel Silverstein - Folk Singer's Blues (Remastered)
10. Shel Silverstein - Beans Taste Fine! (Remastered)
11. Shel Silverstein - The Slitheree-Dee (Remastered)
12. Shel Silverstein - It Does Not Pay To Be Hip (Remastered)
13. Shel Silverstein - Blue Eyes (With Rita Gardner) (Remastered)
14. Shel Silverstein - Standing On The Outside Of Your Shelter (Remastered)
15. Shel Silverstein - Wreck Of The Old '49 (Remastered)
16. Shel Silverstein - Never Bite A Married Woman On The Thigh (Remastered)
17. Shel Silverstein - The Unicorn (Remastered)

foobar2000 1.6.2 / Dynamic Range Meter 1.1.1
log date: 2021-12-01 02:03:52

––––––––––––––––––––––––––––––––––––––––
Analyzed: Shel Silverstein / Inside Folk Songs
––––––––––––––––––––––––––––––––––––––––

DR Peak RMS Duration Track
––––––––––––––––––––––––––––––––––––––––
DR14 -0.96 dB -23.52 dB 3:19 01-Bury Me In My Shades (Remastered)
DR13 -7.48 dB -25.31 dB 2:20 02-Have Another Espresso! (Remastered)
DR13 -8.64 dB -27.31 dB 0:51 03-Bananas (Remastered)
DR16 -5.82 dB -25.30 dB 1:45 04-Liz (Remastered)
DR13 -6.29 dB -22.56 dB 2:36 05-You're Always Welcome At Our House (Remastered)
DR13 -4.59 dB -21.64 dB 1:38 06-Civil War Song (Remastered)
DR14 -6.52 dB -25.51 dB 0:53 07-Boa Constrictor (Remastered)
DR14 -2.48 dB -20.81 dB 3:50 08-25 Minutes To Go (Remastered)
DR15 0.00 dB -20.32 dB 2:54 09-Folk Singer's Blues (Remastered)
DR16 0.00 dB -19.78 dB 2:24 10-Beans Taste Fine! (Remastered)
DR11 -4.89 dB -20.26 dB 0:16 11-The Slitheree-Dee (Remastered)
DR14 -2.56 dB -20.65 dB 2:36 12-It Does Not Pay To Be Hip (Remastered)
DR15 -5.31 dB -23.55 dB 2:28 13-Blue Eyes (With Rita Gardner) (Remastered)
DR13 0.00 dB -23.32 dB 1:27 14-Standing On The Outside Of Your Shelter (Remastered)
DR12 -3.75 dB -18.99 dB 0:24 15-Wreck Of The Old '49 (Remastered)
DR14 -3.47 dB -20.26 dB 1:37 16-Never Bite A Married Woman On The Thigh (Remastered)
DR13 -4.23 dB -21.62 dB 3:41 17-The Unicorn (Remastered)
––––––––––––––––––––––––––––––––––––––––

Number of tracks: 17
Official DR value: DR14

Samplerate: 96000 Hz
Channels: 2
Bits per sample: 24
Bitrate: 2160 kbps
Codec: FLAC
================================================================================



Thanks to the Original customer.