BBC Philharmonic Orchestra & John Storgårds - Shostakovich: "The Year 1905" (2020) [Official Digital Download 24/96]

Posted By: SERTiL
BBC Philharmonic Orchestra & John Storgårds - Shostakovich: "The Year 1905" (2020) [Official Digital Download 24/96]

BBC Philharmonic Orchestra & John Storgårds - Shostakovich: Symphony No. 11 in G Minor, Op. 103 "The Year 1905" (2020)
FLAC (tracks) 24-bit/96 kHz | Time - 66:43 minutes | 1.08 GB
Studio Master, Official Digital Download | Artwork: Front Cover

1905 was a year of revolutionary upheaval in pre-Soviet Russia. Shostakovich based this work on the events of one episode of that year, when thousands of workers and their families converged on the Winter Palace in St. Petersburg to petition the Tsar over their working and living conditions. The Tsar had been advised to leave, no-one was there to accept the petition, and the authorities resorted to cavalry charges to disperse the crowd. With 200 dead and 500 wounded, this incident damaged the Tsar’s reputation and flamed the fire of revolution in the masses.

Whether the work was intended as a politically correct commemoration to please his Soviet paymasters, or actually as a commentary on the 1956 Hungarian uprising, remains under debate. There is no doubt, however, that this majestic score, almost filmic in its conception, remains a milestone in Shostakovich’s output.

The BBC Philharmonic under John Storgårds captures here the tremendous intensity of the work. For perhaps the first time for sixty years, this recording uses four church bells, on loan from the Royal Liverpool Philharmonic Orchestra, rather than the standard orchestral tubular bells. Church bells may be heard on the earliest recording of the Eleventh Symphony, by the Leningrad Philharmonic Orchestra under Yevgeny Mravinsky in 1959, and may therefore be presumed to have the composer’s approval. John Storgårds has chosen to let them ring on after the end of the work, an option also favoured in performance by Mstislav Rostropovich.

Tracklist:
01. Symphony No. 11 in G Minor, Op. 103 "The Year 1905": I. Adagio (The Palace Square) (17:40)
02. Symphony No. 11 in G Minor, Op. 103 "The Year 1905": II. Allegro (The 9th of January) (21:03)
03. Symphony No. 11 in G Minor, Op. 103 "The Year 1905": III. Adagio (Eternal Memory) (12:17)
04. Symphony No. 11 in G Minor, Op. 103 "The Year 1905": IV. Allegro non troppo (Tocsin) (15:45)

foobar2000 1.3.7 / Dynamic Range Meter 1.1.1
log date: 2020-03-24 16:46:08

––––––––––––––––––––––––––––––––––––––––
Analyzed: BBC Philharmonic Orchestra & John Storgårds / Shostakovich: Symphony No. 11 in G Minor, Op. 103 "The Year 1905"
––––––––––––––––––––––––––––––––––––––––

DR Peak RMS Duration Track
––––––––––––––––––––––––––––––––––––––––
DR20 -11.73 dB -38.72 dB 17:40 01-Symphony No. 11 in G Minor, Op. 103 "The Year 1905": I. Adagio (The Palace Square)
DR15 -1.70 dB -24.26 dB 21:03 02-Symphony No. 11 in G Minor, Op. 103 "The Year 1905": II. Allegro (The 9th of January)
DR18 -1.70 dB -27.78 dB 12:17 03-Symphony No. 11 in G Minor, Op. 103 "The Year 1905": III. Adagio (Eternal Memory)
DR16 -1.70 dB -22.88 dB 15:45 04-Symphony No. 11 in G Minor, Op. 103 "The Year 1905": IV. Allegro non troppo (Tocsin)
––––––––––––––––––––––––––––––––––––––––

Number of tracks: 4
Official DR value: DR17

Samplerate: 96000 Hz
Channels: 2
Bits per sample: 24
Bitrate: 2524 kbps
Codec: FLAC
================================================================================


Thanks to the Original customer.