Sinfonie Orchester Biel Solothurn - Mozart- Double concerti K. 365, K. 505 & K. Anh. 56-315f (2020) [Official Digital Download]

Posted By: pyatak
Sinfonie Orchester Biel Solothurn - Mozart- Double concerti K. 365, K. 505 & K. Anh. 56-315f (2020) [Official Digital Download]

Sinfonie Orchester Biel Solothurn - Mozart- Double concerti K. 365, K. 505 & K. Anh. 56-315f (2020) [Official Digital Download]
FLAC (tracks) 24-bit/44.1 kHz | Front Cover | Time - 63:53 minutes | 589 MB
Classical | Label: Fuga Libera , Official Digital Download

The Queen Elisabeth Music Chapel and the Orchestre Symphonique Bienne Soleure have worked together for several years on producing concerts founded on the concept of apprenticeship, offering renowned artists and promising young musicians the possibility of a residency at the Music Chapel. This collaboration has given rise to the ambitious idea of programming Mozart’s double concertos, with the original feature of partnering a confirmed artist – such as Frank Braley or Louis Lortie – with an emerging talent. The conductor Kaspar Zender and the Orchestre Symphonique Bienne Soleure gave their full commitment to this project, which combines the wisdom of experience and youthful ardour, centring on a concert. It was therefore decided to give priority to the experience of live performance in order to preserve the emotion of the artists and the palpable fervour of the audience.

TRACKLIST

1. Sinfonie Orchester Biel Solothurn - I. Allegro
2. Sinfonie Orchester Biel Solothurn - II. Andante
3. Sinfonie Orchester Biel Solothurn - III. Rondo
5. Sinfonie Orchester Biel Solothurn - I. Allegro
6. Sinfonie Orchester Biel Solothurn - II. Andante Cantabile
7. Sinfonie Orchester Biel Solothurn - III. Allegretto

foobar2000 1.6.2 / Dynamic Range Meter 1.1.1
log date: 2021-01-05 22:51:56

––––––––––––––––––––––––––––––––––––––––
Analyzed: Sinfonie Orchester Biel Solothurn / Mozart: Double concerti K. 365, K. 505 & K. Anh. 56/315f
––––––––––––––––––––––––––––––––––––––––

DR Peak RMS Duration Track
––––––––––––––––––––––––––––––––––––––––
DR13 -0.10 dB -17.55 dB 10:26 01-I. Allegro
DR15 -0.37 dB -21.52 dB 6:45 02-II. Andante
DR12 -0.10 dB -16.99 dB 7:38 03-III. Rondo
DR14 -0.10 dB -18.21 dB 12:43 05-I. Allegro
DR13 -3.70 dB -21.21 dB 7:40 06-II. Andante Cantabile
DR14 -0.10 dB -18.55 dB 7:28 07-III. Allegretto
––––––––––––––––––––––––––––––––––––––––

Number of tracks: 6
Official DR value: DR14

Samplerate: 44100 Hz
Channels: 2
Bits per sample: 24
Bitrate: 1319 kbps
Codec: FLAC
================================================================================



Thanks to the Original customer.