Tags
Language
Tags

Smokey Robinson & The Miracles - Going To A Go-Go (1965/2016) [Digital Download 24bit/192kHz]

Posted By:
Smokey Robinson & The Miracles - Going To A Go-Go (1965/2016) [Digital Download 24bit/192kHz]

Smokey Robinson & The Miracles - Going To A Go-Go (1965/2016)
FLAC tracks 24bit/192kHz | Front Cover | 1.38GB + 5% Recovery
Studio Master, Official Digital Download, Motown

Though its title track ignited a nationwide fad for go-go music, Smokey Robinson & the Miracles' Going to a Go-Go LP certainly wasn't just a cash-in effort. It's one of the best records the group put out, and the first six songs make for the best side of any original Motown LP of the '60s (granted, all but one are also available on dozens of Miracles compilations). The four biggest hits were among the best in a set of Miracles archetypes: the throwback to the aching '50s doo wop ballad ("Ooo Baby, Baby"), the flashy up-tempo dance song ("Going to a Go-Go"), the dancing-with-tears-in-my-eyes jerker ("The Tracks of My Tears"), and the mid-tempo orchestral epic ("My Girl Has Gone"). "Choosey Beggar" is one of the sweetest of all Robinson's lead vocals, with stunning background work by the rest of the Miracles. Even the album tracks shine, with "All That's Good" and "Let Me Have Some" working as excellent additions to the program.
Track List
01. The Tracks of My Tears
02. Going to a Go-Go
03. Ooo Baby, Baby
04. My Girl Has Gone
05. In Case You Need Love
06. Choosey Beggar
07. Since You Won My Love
08. From Head to Toe
09. All That's Good
10. My Baby Changes Like the Weather
11. Let Me Have Some
12. A Fork in the Road

musicians
Smokey Robinson - lead vocals
Ronnie White - background vocals
Bobby Rogers – background vocals
Warren "Pete" Moore – background vocals
Claudette Robinson – background vocals
Marv Tarplin – guitar

Produced by Smokey Robinson, Frank Wilson and William "Mickey" Stevenson


––––––––––––––––––––––––––––––––––––––––
Analyzed: Smokey Robinson & The Miracles / Going To A Go-Go
––––––––––––––––––––––––––––––––––––––––

DR Peak RMS Duration Track
––––––––––––––––––––––––––––––––––––––––
DR10 0.00 dB -12.28 dB 2:56 01-The Tracks Of My Tears
DR10 0.00 dB -11.36 dB 2:48 02-Going To A Go-Go
DR8 0.00 dB -9.83 dB 2:47 03-Ooo Baby Baby
DR10 -0.14 dB -11.35 dB 2:52 04-My Girl Has Gone
DR10 0.00 dB -11.07 dB 2:39 05-In Case You Need Love
DR10 0.00 dB -10.66 dB 2:35 06-Choosey Beggar
DR10 0.00 dB -11.74 dB 2:18 07-Since You Won My Heart
DR11 0.00 dB -12.06 dB 2:27 08-From Head To Toe
DR11 0.00 dB -12.57 dB 3:15 09-All That's Good
DR11 0.00 dB -12.43 dB 2:49 10-My Baby Changes Like The Weather
DR10 0.00 dB -11.43 dB 3:10 11-Let Me Have Some
DR10 0.00 dB -11.47 dB 3:25 12-A Fork In The Road
––––––––––––––––––––––––––––––––––––––––

Number of tracks: 12
Official DR value: DR10

Samplerate: 192000 Hz
Channels: 2
Bits per sample: 24
Bitrate: 6014 kbps
Codec: FLAC
================================================================================


Thanks to the original customer