Tags
Language
Tags

Stacey Kent feat. Art Hirahara - Songs From Other Places (2022) [Special Edition]

Posted By: v3122
Stacey Kent feat. Art Hirahara - Songs From Other Places (2022) [Special Edition]

Stacey Kent feat. Art Hirahara - Songs From Other Places (2022)
FLAC (Tracks) 24-bit/192 kHz | Official Digital Download | Time: 00:58:49
Jazz, Vocal Jazz | Candid | 15 Tracks | ~ 1.47 Gb

Stacey Kent’s clear-as-light vocals and Art Hirahara’s lyrical piano make their duo outing exactly “what the world needs now.” On Songs from Other Places, their artistry is beautifully laid bare in classic songs including Weill and Gershwin’s “My Ship,” Jobim’s “Bonita,” and Paul Simon’s “American Tune”—once a protest against the Vietnam War, now a troubled elegy for a nation in even greater distress…

~ jazztimes.com
Stacey Kent feat. Art Hirahara - Songs From Other Places (2022):

Tracklist:

01. I Wish I Could Go Travelling Again (Special Edition) (04:28)
02. Bonita (Special Edition) (04:12)
03. Craigie Burn (Special Edition) (05:12)
04. Les Voyages (Special Edition) (03:09)
05. American Tune (Special Edition) (04:09)
06. Tango In Macao (Special Edition) (05:13)
07. Blackbird (Special Edition) (04:19)
08. My Ship (Special Edition) (04:09)
09. Imagina (Special Edition) (02:03)
10. Landslide (Special Edition) (03:56)
11. Bésame Mucho (Special Edition) (04:14)
12. So Far Away (Special Edition) (03:44)
13. Memories Of You (Special Edition) (04:20)
14. Lovely Day (Special Edition) (03:03)
15. Three Little Birds (Special Edition) (02:38)

Stacey Kent, vocals
Art Hirahara, piano


foobar2000 1.6.6 / Dynamic Range Meter 1.1.1
log date: 2022-05-06 15:17:26

––––––––––––––––––––––––––––––––––––––––
Analyzed: Stacey Kent / Songs From Other Places
––––––––––––––––––––––––––––––––––––––––

DR Peak RMS Duration Track
––––––––––––––––––––––––––––––––––––––––
DR9 -1.00 dB -12.23 dB 4:28 01-I Wish I Could Go Travelling Again (Special Edition)
DR8 -1.11 dB -12.58 dB 4:12 02-Bonita (Special Edition)
DR8 -1.00 dB -12.30 dB 5:13 03-Craigie Burn (Special Edition)
DR9 -1.07 dB -14.14 dB 3:09 04-Les Voyages (Special Edition)
DR8 -1.17 dB -11.86 dB 4:10 05-American Tune (Special Edition)
DR8 -1.00 dB -11.99 dB 5:13 06-Tango In Macao (Special Edition)
DR9 -1.00 dB -13.09 dB 4:20 07-Blackbird (Special Edition)
DR9 -1.14 dB -14.37 dB 4:09 08-My Ship (Special Edition)
DR8 -1.03 dB -10.87 dB 2:04 09-Imagina (Special Edition)
DR8 -1.07 dB -12.50 dB 3:56 10-Landslide (Special Edition)
DR10 -1.50 dB -14.41 dB 4:14 11-Bésame Mucho (Special Edition)
DR9 -1.01 dB -12.56 dB 3:45 12-So Far Away (Special Edition)
DR12 -1.48 dB -16.17 dB 4:21 13-Memories Of You (Special Edition)
DR10 -1.04 dB -13.38 dB 3:03 14-Lovely Day (Special Edition)
DR9 -1.38 dB -12.98 dB 2:38 15-Three Little Birds (Special Edition)
––––––––––––––––––––––––––––––––––––––––

Number of tracks: 15
Official DR value: DR9
Samplerate: 192000 Hz
Channels: 2
Bits per sample: 24
Bitrate: 4095 kbps
Codec: FLAC

All thanks go to the original releaser

Download Stacey Kent feat. Art Hirahara - Songs From Other Places (2022):