Tags
Language
Tags

Stephanie Nilles - I Pledge Allegiance to The Flag - The White Flag (2021) [Official Digital Download 24/96]

Posted By: pyatak
Stephanie Nilles - I Pledge Allegiance to The Flag - The White Flag (2021) [Official Digital Download 24/96]

Stephanie Nilles - I Pledge Allegiance to The Flag - The White Flag (2021) [Official Digital Download 24/96]
FLAC (tracks) 24-bit/96 kHz | Front Cover | Time - 74:35 minutes | 1,21 GB
Jazz | Label: Sunnyside, Official Digital Download

Among the many issues that still plague the United States is its seemingly unending betrayal of its Black population. Though the struggle against prejudice in the States continues, the complexion of its fighters continues to change, as broader swathes of the American public begin to pick up the mantle of racial justice and equality for all.

The voices of African American militants continue to ring in the vanguard’s ears. One such musical example is the late, great bassist/composer Charles Mingus, whose music was vehemently charged with indignation concerning the rights of the downtrodden. His messages, both outright and nuanced, are touchstones for many musicians who choose to address these issues, including singer-songwriter/pianist Stephanie Nilles, who interprets Mingus’s canon on her new recording, I pledge allegiance to the flag – the white flag.

Born six years after Mingus’s death, Nilles comes from a world removed from that of her muse. She is a white woman who grew up in the suburbs of Chicago and studied classical piano and cello. Nilles’s initial introduction to jazz came through her younger brother’s bass study and his involvement with a summer jazz orchestra. It was through her brother that her ears first caught the sounds of Mingus’s “Jump Monk,” igniting a spark that would catch up with her down the line.

TRACKLIST

01. Stephanie Nilles - Fables of Faubus
02. Stephanie Nilles - East Coasting
03. Stephanie Nilles - Oh Lord Don't Let Them Drop That Atomic Bomb On Me
04. Stephanie Nilles - O.P.
05. Stephanie Nilles - Goodbye Pork Pie Hat
06. Stephanie Nilles - Free Cell Block F, 'Tis Nazi U.S.A
07. Stephanie Nilles - Devil Woman
08. Stephanie Nilles - Peggy's Blue Skylight
09. Stephanie Nilles - Pithecanthropus Erectus
10. Stephanie Nilles - Remember Rockefeller at Attica
11. Stephanie Nilles - Alabama

foobar2000 1.6.2 / Dynamic Range Meter 1.1.1
log date: 2021-03-05 13:35:54

––––––––––––––––––––––––––––––––––––––––
Analyzed: Stephanie Nilles / I Pledge Allegiance to The Flag - The White Flag
––––––––––––––––––––––––––––––––––––––––

DR Peak RMS Duration Track
––––––––––––––––––––––––––––––––––––––––
DR12 -0.50 dB -16.64 dB 13:11 01-Fables of Faubus
DR13 -1.97 dB -19.30 dB 4:09 02-East Coasting
DR11 -0.50 dB -16.27 dB 5:06 03-Oh Lord Don't Let Them Drop That Atomic Bomb On Me
DR13 -1.72 dB -18.88 dB 3:42 04-O.P.
DR14 -2.23 dB -22.94 dB 7:05 05-Goodbye Pork Pie Hat
DR13 -0.50 dB -17.55 dB 5:56 06-Free Cell Block F, 'Tis Nazi U.S.A
DR13 -1.32 dB -18.67 dB 6:43 07-Devil Woman
DR14 -3.13 dB -23.51 dB 5:31 08-Peggy's Blue Skylight
DR13 -0.50 dB -18.18 dB 9:21 09-Pithecanthropus Erectus
DR12 -0.50 dB -15.89 dB 4:47 10-Remember Rockefeller at Attica
DR13 -0.50 dB -19.97 dB 9:05 11-Alabama
––––––––––––––––––––––––––––––––––––––––

Number of tracks: 11
Official DR value: DR13

Samplerate: 96000 Hz
Channels: 2
Bits per sample: 24
Bitrate: 2225 kbps
Codec: FLAC
================================================================================



Thanks to the Original customer.