Tags
Language
Tags
July 2024
Su Mo Tu We Th Fr Sa
30 1 2 3 4 5 6
7 8 9 10 11 12 13
14 15 16 17 18 19 20
21 22 23 24 25 26 27
28 29 30 31 1 2 3

Stephen Michael Schwartz - Stephen Michael Schwartz (1974/2024) (Hi-Res)

Posted By: Rtax
Stephen Michael Schwartz - Stephen Michael Schwartz (1974/2024) (Hi-Res)

Stephen Michael Schwartz - Stephen Michael Schwartz (1974/2024) (Hi-Res)
FLAC (tracks) 24bit-192kHz - 1.08 GB
29:38 | Rhythm & Blues, Soul | Label: RCA Victor

In 1974 RCA Records released the self-titled album, Stephen Michael Schwartz ‎– featuring Stephen, backed by some of the best studio musicians in the country. The list is impressive…. Larry Carlton (Guitar), Michael Omartian (Keyboards), Jim Keltner (Drums), Wilton Felder (Bass), Kim Carnes, Clydie King, and Venetta Fields (Background vocals).
The album drew industry attention to Stephen’s talent both as a songwriter and a solid vocal performer. The single, “ROCK ME AWAY”, generated favorable airplay on local FM stations around the country and classified Stephen’s musical genre as “Funk/Soul”. Given the musical climate at the time and disco’s stronghold on radio play, one song off the album that received the most “buzz” was “GET IT UP FOR LOVE”. It was just the beginning of a long and fruitful recording career.

Tracklist
1. Easily (02:45)
2. Rock Me Away (03:26)
3. Love Me Busybody (02:30)
4. Finest Thoughts (02:48)
5. Long Tail Cat (Dixie Holiday) (03:09)
6. Doctor's Daughter (02:39)
7. You Say It's Me (I Think Maybe It's You) (03:03)
8. Get It Up For Love (03:49)
9. Musical Storm (02:25)
10. I Believe I'm Gonna See You Again (03:04)
foobar2000 2.0 / Dynamic Range Meter 1.1.1
log date: 2024-05-31 06:26:21

––––––––––––––––––––––––––––––––––––––––
Analyzed: Stephen Michael Schwartz / Stephen Michael Schwartz
––––––––––––––––––––––––––––––––––––––––

DR Peak RMS Duration Track
––––––––––––––––––––––––––––––––––––––––
DR10 -0.14 dB -11.93 dB 2:45 01-Easily
DR9 -0.14 dB -12.39 dB 3:27 02-Rock Me Away
DR11 -0.14 dB -12.68 dB 2:31 03-Love Me Busybody
DR11 -0.14 dB -14.27 dB 2:48 04-Finest Thoughts
DR10 -0.14 dB -13.96 dB 3:09 05-Long Tail Cat (Dixie Holiday)
DR10 -0.14 dB -12.50 dB 2:39 06-Doctor's Daughter
DR11 -0.14 dB -15.49 dB 3:03 07-You Say It's Me (I Think Maybe It's You)
DR10 -0.14 dB -11.79 dB 3:50 08-Get It Up For Love
DR11 -0.14 dB -12.31 dB 2:26 09-Musical Storm
DR12 -0.14 dB -14.88 dB 3:04 10-I Believe I'm Gonna See You Again
––––––––––––––––––––––––––––––––––––––––

Number of tracks: 10
Official DR value: DR11

Samplerate: 192000 Hz
Channels: 2
Bits per sample: 24
Bitrate: 5091 kbps
Codec: FLAC
================================================================================