Steve Perry - Traces (Deluxe Edition) (2019) [Official Digital Download]

Posted By: Pisulik
Steve Perry - Traces (Deluxe Edition) (2019) [Official Digital Download]

Steve Perry - Traces (Deluxe Edition) (2019)
FLAC (tracks) 24-bit/48 kHz | Time - 58:53 minutes | 727 MB
Studio Master, Official Digital Download | Artwork: Front cover

Steve perry left the ranks of Journey in 1997,to pursue a solo career . Traces: his latest such solo album,sees him in fine voice as usual,despite his age blurted out by other reviewers' - it's irrelevant,that's not the issue with this release.

Tracklist:

01. No Erasin'
02. We're Still Here
03. Most Of All
04. No More Cryin'
05. In The Rain
06. Sun Shines Gray
07. You Belong To Me
08. Easy To Love
09. I Need You
10. We Fly
11. October In New York
12. Angel Eyes
13. Call On Me
14. Could We Be Somethin' Again
15. Blue Jays Fly

foobar2000 1.3.7 / Dynamic Range Meter 1.1.1
log date: 2019-03-15 01:26:55

––––––––––––––––––––––––––––––––––––––––
Analyzed: Steve Perry / Traces
––––––––––––––––––––––––––––––––––––––––

DR Peak RMS Duration Track
––––––––––––––––––––––––––––––––––––––––
DR7 -0.20 dB -8.65 dB 4:07 01-No Erasin'
DR6 -0.21 dB -8.57 dB 4:06 02-We're Still Here
DR5 -0.20 dB -8.05 dB 4:23 03-Most Of All
DR5 -0.20 dB -7.58 dB 4:29 04-No More Cryin'
DR5 -1.20 dB -9.80 dB 4:07 05-In The Rain
DR5 -0.22 dB -6.78 dB 3:58 06-Sun Shines Gray
DR5 -0.60 dB -7.79 dB 4:08 07-You Belong To Me
DR6 -0.22 dB -9.18 dB 4:03 08-Easy To Love
DR8 -0.21 dB -10.89 dB 3:00 09-I Need You
DR8 -0.22 dB -12.06 dB 3:57 10-We Fly
DR10 -0.30 dB -14.45 dB 4:04 11-October In New York
DR5 -0.30 dB -7.80 dB 4:19 12-Angel Eyes
DR8 -0.21 dB -9.68 dB 4:13 13-Call On Me
DR7 -0.24 dB -9.19 dB 3:20 14-Could We Be Somethin' Again
DR12 -0.70 dB -16.77 dB 2:58 15-Blue Jays Fly
––––––––––––––––––––––––––––––––––––––––

Number of tracks: 15
Official DR value: DR7

Samplerate: 48000 Hz
Channels: 2
Bits per sample: 24
Bitrate: 1442 kbps
Codec: FLAC
================================================================================


All thanks go to the original releaser