Sufjan Stevens - Aporia (2020) [Official Digital Download]

Posted By: SERTiL
Sufjan Stevens - Aporia (2020) [Official Digital Download]

Sufjan Stevens - Aporia (2020)
FLAC (tracks) 24-bit/44.1 kHz | Time - 42:06 minutes | 429 MB
Studio Master, Official Digital Download | Artwork: Front Cover

Aporia is a New Age album from Sufjan Stevens and his step-father and record label co-owner, Lowell Brams. In the spirit of the New Age composers who sanded off the edges of their synths' sawtooth waves, Aporia approximates a rich soundtrack from an imagined sci-fi epic brimming with moody, hooky, gauzy synthesizer soundscapes. The album may suggest the progeny of a John Carpenter, Wendy Carlos, and Mike Oldfield marriage, but it stands apart from these touchstones and generates a meditative universe all its own. This is no mere curio in the Sufjan Stevens catalog - but a fully realized collaborative musical piece.

Tracklist:
01. Ousia (02:33)
02. What It Takes (03:23)
03. Disinheritance (01:13)
04. Agathon (03:02)
05. Determined Outcome (02:12)
06. Misology (01:49)
07. Afterworld Alliance (02:47)
08. Palinodes (00:32)
09. Backhanded Cloud (01:26)
10. Glorious You (01:49)
11. For Raymond Scott (00:34)
12. Matronymic (00:57)
13. The Red Desert (02:54)
14. Conciliation (01:20)
15. Ataraxia (01:12)
16. The Unlimited (02:14)
17. The Runaround (03:35)
18. Climb That Mountain (03:00)
19. Captain Praxis (02:13)
20. Eudaimonia (02:19)
21. The Lydian Ring (01:02)

foobar2000 1.3.7 / Dynamic Range Meter 1.1.1
log date: 2020-03-24 22:13:38

––––––––––––––––––––––––––––––––––––––––
Analyzed: Sufjan Stevens / Aporia
––––––––––––––––––––––––––––––––––––––––

DR Peak RMS Duration Track
––––––––––––––––––––––––––––––––––––––––
DR8 -0.20 dB -11.32 dB 2:33 01-Ousia
DR7 -0.20 dB -11.40 dB 3:24 02-What It Takes
DR7 -0.20 dB -9.03 dB 1:13 03-Disinheritance
DR6 -0.20 dB -10.45 dB 3:03 04-Agathon
DR8 -0.20 dB -11.86 dB 2:13 05-Determined Outcome
DR8 -0.20 dB -10.62 dB 1:50 06-Misology
DR8 -0.20 dB -11.49 dB 2:47 07-Afterworld Alliance
DR9 -0.20 dB -15.14 dB 0:33 08-Palinodes
DR7 -0.20 dB -10.85 dB 1:26 09-Backhanded Cloud
DR7 -0.20 dB -10.17 dB 1:50 10-Glorious You
DR10 -0.21 dB -13.46 dB 0:35 11-For Raymond Scott
DR6 -0.20 dB -7.68 dB 0:58 12-Matronymic
DR7 -0.20 dB -9.62 dB 2:54 13-The Red Desert
DR7 -0.20 dB -10.48 dB 1:20 14-Conciliation
DR8 -0.20 dB -11.03 dB 1:13 15-Ataraxia
DR7 -0.20 dB -11.15 dB 2:15 16-The Unlimited
DR6 -0.20 dB -9.46 dB 3:35 17-The Runaround
DR6 -0.20 dB -11.06 dB 3:00 18-Climb That Mountain
DR8 -0.20 dB -11.17 dB 2:14 19-Captain Praxis
DR8 -0.20 dB -12.06 dB 2:20 20-Eudaimonia
DR7 -0.20 dB -10.91 dB 1:03 21-The Lydian Ring
––––––––––––––––––––––––––––––––––––––––

Number of tracks: 21
Official DR value: DR7

Samplerate: 44100 Hz
Channels: 2
Bits per sample: 24
Bitrate: 1171 kbps
Codec: FLAC
================================================================================


Thanks to the Original customer.