Tags
Language
Tags

Sven Wunder - Wabi Sabi (2020) [Official Digital Download]

Posted By: pyatak
Sven Wunder - Wabi Sabi (2020) [Official Digital Download]

Sven Wunder - Wabi Sabi (2020) [Official Digital Download]
FLAC (tracks) 24-bit/48 kHz | Front Cover | Time - 36:22 minutes | 431 MB
Folk | Label: Light In The Attic Records, Official Digital Download

By welcoming the beauty of imperfection and simplicity, Sven Wunder applies the timeless wisdom of wabi sabi on this musical journey. What you can hear is filtered through Ukiyo-e (which translates as “pictures of the floating world”), which illustrates everyday life, as well as through Japonism, the study of Japanese art, and more specifically its influence on European works. The result is a surface that creates an illusion by sound. The infusion of Min’yō with jazz rock, this hazy scene evokes the landscape of Monet’s ”The Water Lily Pond”, which depicts the painter’s Giverny garden, with a Japanese bridge, bamboo, ginkgo trees and the reflection of the sky in the pond. This illusion constructs both time and space.

The surface of the music, like the canvas of the painting, invents a journey between now and then by interpreting the idiom of folkloric and western art instruments. In this composition, the sound of the Western concert flute, which stretches back to the Renaissance and Baroque periods, evokes the sound of the bamboo-flute (”shakuchachi”), which reached its peak during the Edo period. The guzheng, also known as the Chinese zither, with a more than 2,500 year history, joins traditional Japanese folk melodies with modern pop percussion and 20th century electronic instruments such as the Moog synthesizer, Wurlitzer electric piano and electric bass.

TRACKLIST

1. Sven Wunder - Yūgen
2. Sven Wunder - Shinrinyoku
3. Sven Wunder - Hot Winds Arrive
4. Sven Wunder - Hanami
5. Sven Wunder - Komorebi
6. Sven Wunder - Blanket Fog Descends
7. Sven Wunder - Wabi Sabi
8. Sven Wunder - Bamboo and Rocks
9. Sven Wunder - Kachōfūgetsu
10. Sven Wunder - Onsen
11. Sven Wunder - North Wind Rattles the Leaves

foobar2000 1.3.16 / Dynamic Range Meter 1.1.1
log date: 2020-06-14 20:54:09

––––––––––––––––––––––––––––––––––––––––
Analyzed: Sven Wunder / Wabi Sabi
––––––––––––––––––––––––––––––––––––––––

DR Peak RMS Duration Track
––––––––––––––––––––––––––––––––––––––––
DR11 -1.00 dB -14.13 dB 4:06 01-Yūgen
DR12 -1.01 dB -13.75 dB 2:34 02-Shinrinyoku
DR10 -1.00 dB -12.32 dB 2:37 03-Hot Winds Arrive
DR10 -1.00 dB -12.55 dB 3:11 04-Hanami
DR11 -1.00 dB -13.78 dB 3:40 05-Komorebi
DR11 -1.01 dB -13.38 dB 3:02 06-Blanket Fog Descends
DR11 -1.25 dB -14.87 dB 3:15 07-Wabi Sabi
DR12 -1.11 dB -14.71 dB 2:59 08-Bamboo and Rocks
DR12 -1.03 dB -13.68 dB 2:55 09-Kachōfūgetsu
DR12 -1.00 dB -14.93 dB 3:43 10-Onsen
DR10 -1.00 dB -12.10 dB 4:21 11-North Wind Rattles the Leaves
––––––––––––––––––––––––––––––––––––––––

Number of tracks: 11
Official DR value: DR11

Samplerate: 48000 Hz
Channels: 2
Bits per sample: 24
Bitrate: 1636 kbps
Codec: FLAC
================================================================================



Thanks to the Original customer.