Tangerine Dream - Recurring Dreams (2020) [Official Digital Download]

Posted By: SERTiL
Tangerine Dream - Recurring Dreams (2020) [Official Digital Download]

Tangerine Dream - Recurring Dreams (2020)
FLAC (tracks) 24-bit/44.1 kHz | Time - 78:25 minutes | 861 MB
Studio Master, Official Digital Download | Artwork: Front Cover

NEWLY REWORKED SELECTED CLASSICS BY THE 2020 LINE-UP OF THE LEGENDARY PIONEERS OF ELECTRONICA AND AMBIENT Including "Phaedra", "Stratosfear", "Tangram" and "Yellowstone Park"

Tangerine Dream have been a fundamental influence on electronic music since Edgar Froese founded the band in West Berlin, 1967. Providing the groundwork for multiple electronic music genres including ambient and electronica, inspiring musicians and other art forms, from The Future Sound of London to Porcupine Tree, the widely popular TV show 'Stranger Things' (for which their music also featured in) to seminal video game 'Grand Theft Auto V' (for which they helped to write the soundtrack). The group have also received seven Grammy nominations, written over 100 studio albums and were led by Froese, who developed an instantly recognisable synth-based instrumental music based on a meditative musical experience that came to prominence in the 70's and 80's. Fast-forward to the present day, when popular culture is rediscovering synthesizers and sequencers, and Tangerine Dream are in the mix of an exciting time for an evolving electronic music scene.

Modern Tangerine Dream has seen the beginning of 'The Quantum Years', which began as a concept and series of musical sketches by Froese before he passed away in 2015. Remaining band members Thorsten Quaeschning, Ulrich Schnauss and Hoshiko Yamane worked together to realize Edgar's visions and expectations of a conceptual body of work that attempts to translate quantum philosophy into music. The new direction led to the 2017 album 'Quantum Gate', which was described by The Guardian as their "most interesting release in years."

With 'Recurring Dreams', the new generation of Tangerine Dream pay homage to the band's timeless beginnings with captivating and emotional renditions of selected classics, such as "Phaedra", "Stratosfear", "Tangram" and "Yellowstone Park". These new recordings are not just re-recorded covers but heartfelt and individual interpretations, featuring all generations of synths and sequencers, added layers and new arrangements, applying Froese's new quantum dream to these highly influential tracks. Recurring Dreams also includes the new version of "Claymore Mine Stalking" that was used in the popular 2018 black metal movie 'Lords of Chaos'.

Tracklist:
01. Sequent 'C' 2019 (2:27)
02. Monolight (Yellow Part) 2019 (7:40)
03. Tangram Set 1 2019 (Excerpt) (5:44)
04. Horizon 2019 (Pt. 1) (6:46)
05. Horizon 2019 (Pt. 2) (7:15)
06. Phaedra 2014 (8:16)
07. Los Santos City Map (7:25)
08. Claymore Mine / Stalking 2019 (5:41)
09. Yellowstone Park 2019 (6:35)
10. Stratosfear 2019 (11:36)
11. Der Mond ist aufgegangen (Pt. 1 & 2) (9:07)

foobar2000 1.3.7 / Dynamic Range Meter 1.1.1
log date: 2020-01-29 01:28:45

––––––––––––––––––––––––––––––––––––––––
Analyzed: Tangerine Dream / Recurring Dreams
––––––––––––––––––––––––––––––––––––––––

DR Peak RMS Duration Track
––––––––––––––––––––––––––––––––––––––––
DR9 -0.31 dB -11.95 dB 2:27 01-Sequent 'C' 2019
DR7 -0.11 dB -10.35 dB 7:40 02-Monolight (Yellow Part) 2019
DR6 -0.10 dB -9.20 dB 5:44 03-Tangram Set 1 2019 (Excerpt)
DR6 -0.10 dB -8.40 dB 6:46 04-Horizon 2019 (Pt. 1)
DR6 -0.10 dB -7.06 dB 7:15 05-Horizon 2019 (Pt. 2)
DR7 -0.10 dB -8.93 dB 8:16 06-Phaedra 2014
DR6 -0.10 dB -8.60 dB 7:25 07-Los Santos City Map
DR7 -0.10 dB -8.29 dB 5:41 08-Claymore Mine / Stalking 2019
DR7 -0.11 dB -9.17 dB 6:35 09-Yellowstone Park 2019
DR6 -0.10 dB -8.55 dB 11:36 10-Stratosfear 2019
DR6 -0.10 dB -8.65 dB 9:07 11-Der Mond ist aufgegangen (Pt. 1 & 2)
––––––––––––––––––––––––––––––––––––––––

Number of tracks: 11
Official DR value: DR7

Samplerate: 44100 Hz
Channels: 2
Bits per sample: 24
Bitrate: 1324 kbps
Codec: FLAC
================================================================================


Thanks to the Original customer.