Taylor Swift - Fearless (Taylor’s Version) - The I Remember What You Said Last Night Chapter (2021) [Official Digital Download]

Posted By: pyatak
Taylor Swift - Fearless (Taylor’s Version) - The I Remember What You Said Last Night Chapter (2021) [Official Digital Download]

Taylor Swift - Fearless (Taylor’s Version) - The I Remember What You Said Last Night Chapter (2021) [Official Digital Download 24/96]
FLAC (tracks) 24-bit/96 kHz | Front Cover | Time - 23:33 minutes | 561 MB
Pop, Country | Label: Taylor Swift, Official Digital Download

The third EP comprised of songs from Fearless (Taylor’s Version), following The Kissing In The Rain Chapter and The Halfway Out The Door Chapter, this chapter is the first to not include any Vault or originally non-album songs. It includes the lead single from Fearless (Taylor’s Version), “Love Story (Taylor’s Version)”, as well as Forever & Always, which was also included on The Halfway Out The Door Chapter*.

The title is taken from a line in “Tell Me Why (Taylor’s Version)”, about remembering a partner’s cruel temper. “Forever & Always (Taylor’s Version)” is also about a partner who has broken her heart, with the final song on the EP being about the hope that a bad situation will change.

Swift announced the EP with a fleet on her Twitter account, with the caption “Now you know ”, a reference to the final line in “Tell Me Why (Taylor’s Version”, “I told you I’m not bulletproof / Now you know”.

TRACKLIST

01. Taylor Swift - You Belong With Me (Taylor’s Version)
02. Taylor Swift - Tell Me Why (Taylor’s Version)
03. Taylor Swift - Fearless (Taylor’s Version)
04. Taylor Swift - Love Story (Taylor’s Version)
05. Taylor Swift - Forever & Always (Taylor’s Version)
06. Taylor Swift - Change (Taylor’s Version)

foobar2000 1.6.2 / Dynamic Range Meter 1.1.1
log date: 2021-05-25 21:56:46

––––––––––––––––––––––––––––––––––––––––
Analyzed: Taylor Swift / Fearless (Taylor’s Version): The I Remember What You Said Last Night Chapter
––––––––––––––––––––––––––––––––––––––––

DR Peak RMS Duration Track
––––––––––––––––––––––––––––––––––––––––
DR6 -0.20 dB -8.16 dB 3:51 01-You Belong With Me (Taylor’s Version)
DR6 -0.30 dB -7.96 dB 3:21 02-Tell Me Why (Taylor’s Version)
DR6 -0.30 dB -7.97 dB 4:02 03-Fearless (Taylor’s Version)
DR6 -0.22 dB -8.00 dB 3:56 04-Love Story (Taylor’s Version)
DR6 -0.30 dB -7.82 dB 3:45 05-Forever & Always (Taylor’s Version)
DR6 -0.30 dB -7.11 dB 4:39 06-Change (Taylor’s Version)
––––––––––––––––––––––––––––––––––––––––

Number of tracks: 6
Official DR value: DR6

Samplerate: 96000 Hz
Channels: 2
Bits per sample: 24
Bitrate: 3406 kbps
Codec: FLAC
================================================================================



Thanks to the Original customer.