Tags
Language
Tags

The Georgia Satellites - Route 66 (2022)

Posted By: v3122
The Georgia Satellites - Route 66 (2022)

The Georgia Satellites - Route 66 (2022)
FLAC (Tracks) 24-bit/44.1 kHz | Official Digital Download | Time: 01:13:58
Rock, Rock'n'Roll | Remastered | Delta Music | ~ 868 Mb

The Georgia Satellites are an American Southern rock band from Atlanta, Georgia. They achieved mainstream success with their 1986 self-titled debut album, featuring their best-known single "Keep Your Hands to Yourself", which peaked at No. 2 on the Billboard Hot 100. Two more albums followed – Open All Night (1988) and the band's last to feature original material In the Land of Salvation and Sin (1989) – before they went on hiatus in 1990.

The Georgia Satellites resurfaced in 1993 and have since continued to perform live. Their latest studio album to date is 1996's Shaken Not Stirred, which includes re-recordings of the band's older material, in addition to eight new songs. They have experienced numerous lineup changes in their career, with lead guitarist and vocalist Rick Richards being the only constant member. Their current lineup includes Richards, drummer Todd Johnston, lead vocalist and rhythm guitarist Fred McNeal and bassist Bruce Smith…

~ wiki
The Georgia Satellites - Route 66 (2022):

Tracklist:

01. Muddy Water (Live (Remastered)) [04:08]
02. The Myth Of Love (Live (Remastered)) [04:39]
03. School Days (Live (Remastered)) [03:18]
04. Battleship Chains (Live (Remastered)) [03:20]
05. Long Black Veil (Live (Remastered)) [05:28]
06. Red Light (Live (Remastered)) [02:32]
07. No Money Down (Live (Remastered)) [05:25]
08. It's All Over Now (Live (Remastered)) [03:49]
09. Nights Of Mystery (Live (Remastered)) [06:47]
10. Something Else (Live (Remastered)) [02:56]
11. My Baby (Live (Remastered)) [07:50]
12. Open All Night (Live (Remastered)) [03:01]
13. Don't Pass Me By (Live (Remastered)) [04:45]
14. Keep Your Hands To Yourself (Live (Remastered)) [06:35]
15. Railroad Steel (Live (Remastered)) [06:27]
16. Route 66 (Live (Remastered)) [03:11]

foobar2000 1.6.8 / Dynamic Range Meter 1.1.1
log date: 2022-06-20 17:54:59

––––––––––––––––––––––––––––––––––––––––
Analyzed: The Georgia Satellites / Route 66
––––––––––––––––––––––––––––––––––––––––

DR Peak RMS Duration Track
––––––––––––––––––––––––––––––––––––––––
DR9 -0.16 dB -10.13 dB 4:08 01-Muddy Water (Live (Remastered))
DR9 -0.16 dB -10.09 dB 4:39 02-The Myth Of Love (Live (Remastered))
DR9 -0.16 dB -9.62 dB 3:18 03-School Days (Live (Remastered))
DR9 -0.15 dB -9.47 dB 3:20 04-Battleship Chains (Live (Remastered))
DR9 -0.15 dB -10.19 dB 5:28 05-Long Black Veil (Live (Remastered))
DR9 -0.15 dB -9.97 dB 2:32 06-Red Light (Live (Remastered))
DR9 -0.15 dB -9.91 dB 5:25 07-No Money Down (Live (Remastered))
DR9 -0.15 dB -9.56 dB 3:49 08-It's All Over Now (Live (Remastered))
DR9 -0.15 dB -10.26 dB 6:47 09-Nights Of Mystery (Live (Remastered))
DR9 -0.16 dB -10.09 dB 2:56 10-Something Else (Live (Remastered))
DR10 -0.15 dB -11.31 dB 7:50 11-My Baby (Live (Remastered))
DR11 -0.15 dB -11.78 dB 3:01 12-Open All Night (Live (Remastered))
DR10 -0.16 dB -10.99 dB 4:45 13-Don't Pass Me By (Live (Remastered))
DR10 -0.15 dB -11.18 dB 6:35 14-Keep Your Hands To Yourself (Live (Remastered))
DR10 -0.16 dB -11.17 dB 6:27 15-Railroad Steel (Live (Remastered))
DR10 -0.16 dB -11.68 dB 3:11 16-Route 66 (Live (Remastered))
––––––––––––––––––––––––––––––––––––––––

Number of tracks: 16
Official DR value: DR9

Samplerate: 44100 Hz
Channels: 2
Bits per sample: 24
Bitrate: 1562 kbps

All thanks go to the original releaser

Download The Georgia Satellites - Route 66 (2022):