The London Haydn Quartet - Haydn: String Quartets Op 50 (2016) [TR24][OF]

Posted By: SERTiL
The London Haydn Quartet - Haydn: String Quartets Op 50 (2016) [TR24][OF]

The London Haydn Quartet - Haydn: String Quartets Op 50
Classical | FLAC (tracks) 24-bit/96 kHz | 148:43 min | 2.91 GB | Digital booklet
Label: Hyperion | Tracks: 24 | Rls.date: 2016

The London Haydn Quartet turns to the six Op 50 quartets. More serious—intellectually taut—than the Op 33 ‘Russian’ quartets which they follow in Haydn’s output, these six ‘Prussian’ quartets dazzle in such committed performances as these.

TRACKLIST
01 Haydn String Quartet in B flat major, Op 50 No - 1 Allegro
02 Haydn String Quartet in B flat major, Op 50 No - 2 Adagio
03 Haydn String Quartet in B flat major, Op 50 No - 3 Menuetto Poco allegrett
04 Haydn String Quartet in B flat major, Op 50 No - 4 Vivace assai
05 Haydn String Quartet in C major, Op 50 No 2 - 1 Vivace
06 Haydn String Quartet in C major, Op 50 No 2 - 2 Adagio
07 Haydn String Quartet in C major, Op 50 No 2 - 3 Menuetto Allegro
08 Haydn String Quartet in C major, Op 50 No 2 - 4 Vivace assai
09 Haydn String Quartet in E flat major, Op 50 No - 1 Allegro con brio
10 Haydn String Quartet in E flat major, Op 50 No - 2 Andante più tosto allegr
11 Haydn String Quartet in E flat major, Op 50 No - 3 Menuetto Allegretto
12 Haydn String Quartet in E flat major, Op 50 No - 4 Presto
13 Haydn String Quartet in F sharp minor, Op 50 N - 1 Spiritoso
14 Haydn String Quartet in F sharp minor, Op 50 N - 2 Andante
15 Haydn String Quartet in F sharp minor, Op 50 N - 3 Menuetto Poco allegrett
16 Haydn String Quartet in F sharp minor, Op 50 N - 4 Fuga Allegro molto
17 Haydn String Quartet in F major The Dream, O - 1 Allegro moderato
18 Haydn String Quartet in F major The Dream, O - 2 Poco adagio
19 Haydn String Quartet in F major The Dream, O - 3 Menuetto Allegretto
20 Haydn String Quartet in F major The Dream, O - 4 Vivace
21 Haydn String Quartet in D major The Frog, Op - 1 Allegro
22 Haydn String Quartet in D major The Frog, Op - 2 Poco adagio
23 Haydn String Quartet in D major The Frog, Op - 3 Menuetto Allegretto
24 Haydn String Quartet in D major The Frog, Op - 4 Allegro con spirito

foobar2000 1.3.7 / Замер динамического диапазона (DR) 1.1.1
Дата отчёта: 2017-02-07 21:57:31

––––––––––––––––––––––––––––––––––––––––
Анализ: The London Haydn Quartet / Haydn: String Quartets Op 50
––––––––––––––––––––––––––––––––––––––––

DR Пики RMS Продолжительность трека
––––––––––––––––––––––––––––––––––––––––
DR14 -0.24 дБ -17.51 дБ 8:43 1-Haydn: String Quartet in B flat major, Op 50 No 1 - 1: Allegro
DR13 -0.75 дБ -19.09 дБ 7:28 2-Haydn: String Quartet in B flat major, Op 50 No 1 - 2: Adagio
DR13 -0.34 дБ -18.35 дБ 3:15 3-Haydn: String Quartet in B flat major, Op 50 No 1 - 3: Menuetto: Poco allegretto
DR13 -0.17 дБ -16.94 дБ 4:49 4-Haydn: String Quartet in B flat major, Op 50 No 1 - 4: Vivace assai
DR14 -0.28 дБ -17.84 дБ 12:16 5-Haydn: String Quartet in C major, Op 50 No 2 - 1: Vivace
DR14 -0.59 дБ -22.10 дБ 4:45 6-Haydn: String Quartet in C major, Op 50 No 2 - 2: Adagio
DR14 -0.32 дБ -18.10 дБ 4:00 7-Haydn: String Quartet in C major, Op 50 No 2 - 3: Menuetto: Allegro
DR14 -0.27 дБ -17.41 дБ 7:02 8-Haydn: String Quartet in C major, Op 50 No 2 - 4: Vivace assai
DR14 -0.33 дБ -17.75 дБ 6:22 9-Haydn: String Quartet in E flat major, Op 50 No 3 - 1: Allegro con brio
DR13 -2.01 дБ -19.79 дБ 7:24 10-Haydn: String Quartet in E flat major, Op 50 No 3 - 2: Andante più tosto allegretto
DR13 -0.45 дБ -19.22 дБ 4:47 11-Haydn: String Quartet in E flat major, Op 50 No 3 - 3: Menuetto: Allegretto
DR13 -0.29 дБ -17.94 дБ 4:44 12-Haydn: String Quartet in E flat major, Op 50 No 3 - 4: Presto
DR13 -0.28 дБ -16.67 дБ 9:05 13-Haydn: String Quartet in F sharp minor, Op 50 No 4 - 1: Spiritoso
DR13 -0.34 дБ -17.77 дБ 7:55 14-Haydn: String Quartet in F sharp minor, Op 50 No 4 - 2: Andante
DR13 -0.40 дБ -18.73 дБ 4:14 15-Haydn: String Quartet in F sharp minor, Op 50 No 4 - 3: Menuetto: Poco allegretto
DR11 -0.24 дБ -15.21 дБ 2:06 16-Haydn: String Quartet in F sharp minor, Op 50 No 4 - 4: Fuga: Allegro molto
DR13 -0.37 дБ -18.16 дБ 7:45 17-Haydn: String Quartet in F major 'The Dream', Op 50 No 5 - 1: Allegro moderato
DR13 -3.00 дБ -21.39 дБ 3:47 18-Haydn: String Quartet in F major 'The Dream', Op 50 No 5 - 2: Poco adagio
DR14 -0.28 дБ -20.06 дБ 4:21 19-Haydn: String Quartet in F major 'The Dream', Op 50 No 5 - 3: Menuetto: Allegretto
DR14 -0.39 дБ -17.20 дБ 6:07 20-Haydn: String Quartet in F major 'The Dream', Op 50 No 5 - 4: Vivace
DR13 -0.32 дБ -17.21 дБ 9:50 21-Haydn: String Quartet in D major 'The Frog', Op 50 No 6 - 1: Allegro
DR14 -0.33 дБ -19.32 дБ 6:41 22-Haydn: String Quartet in D major 'The Frog', Op 50 No 6 - 2: Poco adagio
DR13 -0.36 дБ -17.86 дБ 4:41 23-Haydn: String Quartet in D major 'The Frog', Op 50 No 6 - 3: Menuetto: Allegretto
DR13 -0.35 дБ -16.56 дБ 6:44 24-Haydn: String Quartet in D major 'The Frog', Op 50 No 6 - 4: Allegro con spirito
––––––––––––––––––––––––––––––––––––––––

Количество треков: 24
Реальные значения DR: DR13

Частота: 96000 Гц
Каналов: 2
Разрядность: 24
Битрейт: 2852 кбит/с
Кодек: FLAC
================================================================================


Thanks to the Original customer.