Tags
Language
Tags

The Carpenters - Singles 1969-1981 (2000/2020) [Official Digital Download]

Posted By: pyatak
The Carpenters - Singles 1969-1981  (2000/2020) [Official Digital Download]

The Carpenters - Singles 1969-1981 (2000/2020) [Official Digital Download]
FLAC (tracks) 24-bit/48 kHz | Front Cover | Time - 76:58 minutes | 899 MB
Pop | Label: A&M, Official Digital Download

Singles (1969-1981) expands the popular Singles (1969-1973) album with more of the group's later hits, such as "Please Mr. Postman," "Only Yesterday," "Touch Me When We're Dancing," and "I Won't Last a Day Without You." "(They Long to Be) Close to You," "We've Only Just Begun," "Superstar," and other '70s hits are still here, making this a definitive collection of their best-known songs.

TRACKLIST

1. The Carpenters - Yesterday Once More (1991 Remix)
2. The Carpenters - We've Only Just Begun
3. The Carpenters - Superstar (2004 Remix)
4. The Carpenters - Rainy Days And Mondays (1991 Remix)
5. The Carpenters - Goodbye To Love (1991 Remix)
6. The Carpenters - I Believe You
7. The Carpenters - It's Going To Take Some Time (1989 Remix)
8. The Carpenters - This Masquerade (1990 Remix)
9. The Carpenters - Ticket To Ride
10. The Carpenters - Top Of The World (2004 Remix)
11. The Carpenters - Only Yesterday
12. The Carpenters - Hurting Each Other (1991 Remix)
13. The Carpenters - Please Mr. Postman (1991 Remix)
14. The Carpenters - Merry Christmas Darling (Remix)
15. The Carpenters - Sing (1994 Remix)
16. The Carpenters - Bless The Beasts And Children (1991 Remix)
17. The Carpenters - I Won't Last A Day Without You (1991 Remix)
18. The Carpenters - Touch Me When We're Dancing
19. The Carpenters - For All We Know (1990 Remix)
20. The Carpenters - (They Long To Be) Close To You (1991 Remix)
21. The Carpenters - Calling Occupants Of Interplanetary Craft (The Recognized Anthem Of World Contact Day) (1989 Remix)

foobar2000 1.6.2 / Dynamic Range Meter 1.1.1
log date: 2021-02-22 13:50:12

––––––––––––––––––––––––––––––––––––––––
Analyzed: The Carpenters / Singles 1969-1981
––––––––––––––––––––––––––––––––––––––––

DR Peak RMS Duration Track
––––––––––––––––––––––––––––––––––––––––
DR11 -0.55 dB -14.74 dB 3:59 01-Yesterday Once More (1991 Remix)
DR10 -0.94 dB -14.51 dB 3:06 02-We've Only Just Begun
DR10 -1.16 dB -14.29 dB 3:47 03-Superstar (2004 Remix)
DR10 -0.84 dB -15.00 dB 3:35 04-Rainy Days And Mondays (1991 Remix)
DR9 -0.54 dB -12.60 dB 3:57 05-Goodbye To Love (1991 Remix)
DR9 -0.99 dB -14.60 dB 3:56 06-I Believe You
DR12 -0.80 dB -15.48 dB 2:59 07-It's Going To Take Some Time (1989 Remix)
DR13 -1.15 dB -16.88 dB 4:53 08-This Masquerade (1990 Remix)
DR8 -0.64 dB -12.99 dB 4:10 09-Ticket To Ride
DR11 -1.21 dB -15.02 dB 3:00 10-Top Of The World (2004 Remix)
DR10 -0.80 dB -13.99 dB 3:46 11-Only Yesterday
DR9 -0.93 dB -13.68 dB 2:48 12-Hurting Each Other (1991 Remix)
DR10 -0.96 dB -12.99 dB 2:48 13-Please Mr. Postman (1991 Remix)
DR8 -1.94 dB -13.75 dB 3:08 14-Merry Christmas Darling (Remix)
DR11 -1.22 dB -15.44 dB 3:18 15-Sing (1994 Remix)
DR10 -0.48 dB -15.60 dB 3:15 16-Bless The Beasts And Children (1991 Remix)
DR9 -0.78 dB -13.49 dB 3:56 17-I Won't Last A Day Without You (1991 Remix)
DR9 -0.55 dB -13.36 dB 3:21 18-Touch Me When We're Dancing
DR11 -1.30 dB -14.56 dB 2:34 19-For All We Know (1990 Remix)
DR11 -1.16 dB -15.90 dB 3:42 20-(They Long To Be) Close To You (1991 Remix)
DR10 -0.57 dB -14.23 dB 7:12 21-Calling Occupants Of Interplanetary Craft (The Recognized Anthem Of World Contact Day) (1989 Remix)
––––––––––––––––––––––––––––––––––––––––

Number of tracks: 21
Official DR value: DR10

Samplerate: 48000 Hz
Channels: 2
Bits per sample: 24
Bitrate: 1650 kbps
Codec: FLAC
================================================================================



Thanks to the Original customer.