Tags
Language
Tags

The Count Basie Orchestra - Live At Birdland (2021) [Official Digital Download 24/96]

Posted By: shamanicus
The Count Basie Orchestra - Live At Birdland (2021) [Official Digital Download 24/96]

The Count Basie Orchestra - Live At Birdland (2021)
FLAC (tracks) 24-bit/96 kHz | Artwork: front cover l 2:30:15 | 2.91 Gb
Jazz, Big Band, Traditional Jazz | Label: Candid, Official Digital Download

In the history of jazz music, there is only one bandleader that has the distinction of having his orchestra still performing sold out concerts all over the world. The work, with members personally chosen by him, for over 30 years after his passing. Pianist and bandleader William James “Count” Basie was and still is an American institution that personifies the grandeur and the excellence of jazz. The Count Basie Orchestra, today directed by Scotty Barnhart, has won every respected jazz poll in the world at least once, won 18 Grammy Awards, performed for Kings, Queens, and other world royalty, appeared in several movies, television shows, at every major jazz festival and major concert hall in the world.

Tracklist:

01. Intro (Live)
02. The Kid From Redbank (Live)
03. Who, Me (Live)
04. Way Out Basie (Live)
05. In The Wee Small Hours Of The Morning (Live)
06. Doodle Oodle (Live)
07. Four Five Six (Live)
08. Basie Power (Live)
09. Honeysuckle Rose (Live)
10. Only The Young (Live)
11. I Can't Give You Anything But Love (Live)
12. Easin' It (Live)
13. What's New (Live)
14. Kansas City Shout (Live)
15. How Do You Keep The Music Playing (Live)
16. Basie (Live)
17. One 'O Clock Jump (Live)
18. Wind Machine (Live)
19. April In Paris (Live)
20. There Will Never Be Another You (Live)
21. I've Grown Accustomed To Her Face (Live)
22. I Needs To Be Bee'd With (Live)
23. Flute Juice (Live)
24. Moten Swing (Live)
25. Blues In Hoss' Flat (Live)
26. Once In A While (Live)
27. Five 'O Clock In The Morning (Live)
28. Shiny Stockings (Live)
29. What Kind Of Fool Am I (Live)
30. 'Deed I Do (Live)
31. From One To Another (Live)
32. Whirlybirds (Live)
33. One 'O Clock Jump (short) (Live)


foobar2000 1.5.5 / Dynamic Range Meter 1.1.1
log date: 2021-09-22 17:10:50

––––––––––––––––––––––––––––––––––––––––
Analyzed: The Count Basie Orchestra / Live At Birdland
––––––––––––––––––––––––––––––––––––––––

DR Peak RMS Duration Track
––––––––––––––––––––––––––––––––––––––––
DR9 -2.47 dB -16.18 dB 0:17 01-Intro (Live)
DR12 -0.46 dB -15.14 dB 3:13 02-The Kid From Redbank (Live)
DR13 -0.11 dB -16.20 dB 5:10 03-Who, Me (Live)
DR12 -0.11 dB -16.33 dB 5:06 04-Way Out Basie (Live)
DR14 -0.10 dB -18.50 dB 6:08 05-In The Wee Small Hours Of The Morning (Live)
DR12 -0.12 dB -13.86 dB 2:53 06-Doodle Oodle (Live)
DR13 -0.10 dB -15.82 dB 8:30 07-Four Five Six (Live)
DR12 -0.46 dB -15.52 dB 4:06 08-Basie Power (Live)
DR13 -0.10 dB -15.44 dB 3:22 09-Honeysuckle Rose (Live)
DR10 -3.05 dB -15.91 dB 4:58 10-Only The Young (Live)
DR12 -0.13 dB -14.72 dB 3:06 11-I Can't Give You Anything But Love (Live)
DR13 -0.10 dB -16.94 dB 7:23 12-Easin' It (Live)
DR12 -0.12 dB -16.75 dB 5:09 13-What's New (Live)
DR12 -0.10 dB -15.52 dB 3:33 14-Kansas City Shout (Live)
DR11 -1.02 dB -16.41 dB 5:07 15-How Do You Keep The Music Playing (Live)
DR11 -0.11 dB -14.07 dB 4:18 16-Basie (Live)
DR13 -0.10 dB -16.33 dB 3:50 17-One 'O Clock Jump (Live)
DR13 -0.10 dB -15.39 dB 3:23 18-Wind Machine (Live)
DR12 -0.10 dB -15.20 dB 3:31 19-April In Paris (Live)
DR13 -0.11 dB -15.11 dB 2:48 20-There Will Never Be Another You (Live)
DR12 -0.10 dB -16.23 dB 4:13 21-I've Grown Accustomed To Her Face (Live)
DR13 -0.10 dB -18.78 dB 5:23 22-I Needs To Be Bee'd With (Live)
DR11 -0.86 dB -15.82 dB 3:53 23-Flute Juice (Live)
DR13 -0.10 dB -16.85 dB 5:33 24-Moten Swing (Live)
DR12 -0.10 dB -15.69 dB 8:15 25-Blues In Hoss' Flat (Live)
DR12 -0.10 dB -14.09 dB 4:17 26-Once In A While (Live)
DR12 -0.11 dB -14.97 dB 3:14 27-Five 'O Clock In The Morning (Live)
DR12 -0.11 dB -16.11 dB 5:36 28-Shiny Stockings (Live)
DR13 -0.12 dB -17.38 dB 3:34 29-What Kind Of Fool Am I (Live)
DR11 -1.60 dB -15.12 dB 2:42 30-'Deed I Do (Live)
DR13 -0.10 dB -17.60 dB 10:56 31-From One To Another (Live)
DR11 -0.13 dB -15.98 dB 5:33 32-Whirlybirds (Live)
DR12 -0.56 dB -15.56 dB 1:19 33-One 'O Clock Jump (short) (Live)
––––––––––––––––––––––––––––––––––––––––

Number of tracks: 33
Official DR value: DR12

Samplerate: 96000 Hz
Channels: 2
Bits per sample: 24
Bitrate: 2810 kbps
Codec: FLAC
================================================================================




Thanks to the Original customer.