Tags
Language
Tags

The Flaming Lips - Greatest Hits, Vol. 1 (Deluxe Edition) (2018) [Official Digital Download]

Posted By: Pisulik
The Flaming Lips - Greatest Hits, Vol. 1 (Deluxe Edition) (2018) [Official Digital Download]

The Flaming Lips - Greatest Hits, Vol. 1 (Deluxe Edition) (2018)
FLAC (tracks) 24-bit/44.1-96 kHz | Time - 223:47 minutes | 3,68 GB
Studio Master, Official Digital Download | Artwork: Front cover

Warner Bros. Music will issue a Flaming Lips greatest hits in June, which will be available both on vinyl and as a set. Greatest Hits, Vol. 1 will include singles, B-sides, outtakes and previously unreleased tracks, with audio remastered from the original tape source by Dave Fridmann. While the triple-CD deluxe boasts a massive 52 tracks, the single vinyl LP edition is a extremely condensed 11-track affair.

Tracklist:

01. Talkin' 'Bout the Smiling Deathporn Immortality Blues (Everyone Wants to Live Forever)
02. Hit Me Like You Did the First Time
03. Frogs
04. Felt Good to Burn
05. Turn It On
06. She Don't Use Jelly
07. Chewin the Apple of Your Eye
08. Slow Nerve Action
09. Psychiatric Explorations of the Fetus With Needles
10. Brainville
11. Lightning Strikes the Postman
12. When You Smile
13. Bad Days (Aurally Excited Version)
14. Riding to Work in the Year 2025
15. Race for the Prize (Sacrifice of the New Scientists)
16. Waitin' for a Superman (Is It Getting Heavy?)
17. The Spark That Bled
18. What Is the Light?
19. Yoshimi Battles the Pink Robots, Pt. 1
20. In the Morning of the Magicians
21. All We Have Is Now
22. Do You Realize??
23. The W.A.N.D.
24. Pompeii Am Gotterdammerung
25. Vein of Stars
26. The Yeah Yeah Yeah Song
27. Convinced of the Hex
28. See the Leaves
29. Silver Trembling Hands
30. Is David Bowie Dying? (feat. Neon Indian)
31. Try to Explain
32. Always There, In Our Hearts
33. How??
34. There Should Be Unicorns
35. The Castle
36. Zero to a Million
37. Jets (Cupid's Kiss vs. The Psyche of Death) [2-Track Demo]
38. Thirty-Five Thousand Feet of Despair
39. The Captain
40. 1000ft Hands
41. Noodling Theme (Epic Sunset Mix #5)
42. Up Above the Daily Hum
43. The Yeah Yeah Yeah Song (In Anatropous Reflex)
44. We Can't Predict the Future
45. Your Face Can Tell the Future
46. You Gotta Hold On
47. What Does It Mean?
48. Spider-man vs. Muhammad Ali
49. I Was Zapped By the Lucky Super Rainbow
50. Enthusiasm for Life Defeats Existential Fear Part 2
51. If I Only Had a Brain
52. Silent Night / Lord, Can You Hear Me

foobar2000 1.3.7 / Dynamic Range Meter 1.1.1
log date: 2018-05-31 15:38:40

––––––––––––––––––––––––––––––––––––––––
Analyzed: The Flaming Lips / Greatest Hits, Vol. 1 (Deluxe Edition)
––––––––––––––––––––––––––––––––––––––––

DR Peak RMS Duration Track
––––––––––––––––––––––––––––––––––––––––
DR5 -0.31 dB -6.18 dB 3:51 01-Talkin' 'Bout the Smiling Deathporn Immortality Blues (Everyone Wants to Live Forever)
DR8 -0.31 dB -9.86 dB 3:30 02-Hit Me Like You Did the First Time
DR6 -0.30 dB -7.35 dB 4:26 03-Frogs
DR4 -0.31 dB -4.40 dB 3:21 04-Felt Good to Burn
DR6 -0.31 dB -8.08 dB 3:28 09-Psychiatric Explorations of the Fetus With Needles
DR8 -0.30 dB -11.11 dB 3:13 10-Brainville
DR6 -0.31 dB -7.38 dB 2:51 11-Lightning Strikes the Postman
DR7 -0.30 dB -9.98 dB 3:03 12-When You Smile
DR6 -0.16 dB -9.05 dB 5:53 14-Riding to Work in the Year 2025
DR5 -0.04 dB -6.72 dB 4:17 15-Race for the Prize (Sacrifice of the New Scientists)
DR6 -0.30 dB -8.20 dB 4:19 16-Waitin' for a Superman (Is It Getting Heavy)
DR7 -0.31 dB -10.67 dB 5:56 17-The Spark That Bled
DR5 -0.31 dB -8.25 dB 4:05 18-What Is the Light
DR4 0.00 dB -6.88 dB 4:55 26-The Yeah Yeah Yeah Song
DR3 -2.91 dB -8.14 dB 6:40 30-Is David Bowie Dying (feat Neon Indian)
DR4 -0.28 dB -6.55 dB 5:09 39-The Captain
DR6 -0.30 dB -10.20 dB 5:46 40-1000ft Hands
DR8 -1.15 dB -11.70 dB 3:23 41-Noodling Theme (Epic Sunset Mix #5)
DR12 -4.39 dB -18.27 dB 4:18 43-The Yeah Yeah Yeah Song (In Anatropous Reflex)
DR9 -1.94 dB -11.91 dB 3:03 44-We Can't Predict the Future
DR7 -0.19 dB -7.37 dB 5:10 47-What Does It Mean
DR5 -0.32 dB -6.43 dB 3:34 49-I Was Zapped By the Lucky Super Rainbow
DR11 -0.32 dB -13.12 dB 2:17 51-If I Only Had a Brain
––––––––––––––––––––––––––––––––––––––––

Number of tracks: 23
Official DR value: DR6

Samplerate: 44100 Hz
Channels: 2
Bits per sample: 24
Bitrate: 1568 kbps
Codec: FLAC
================================================================================

––––––––––––––––––––––––––––––––––––––––
Analyzed: The Flaming Lips / Greatest Hits, Vol. 1 (Deluxe Edition)
––––––––––––––––––––––––––––––––––––––––

DR Peak RMS Duration Track
––––––––––––––––––––––––––––––––––––––––
DR4 -0.88 dB -5.91 dB 3:55 27-Convinced of the Hex
DR4 -0.19 dB -5.95 dB 4:00 29-Silver Trembling Hands
DR6 -0.32 dB -7.50 dB 5:06 50-Enthusiasm for Life Defeats Existential Fear Part 2
––––––––––––––––––––––––––––––––––––––––

Number of tracks: 3
Official DR value: DR5

Samplerate: 48000 Hz
Channels: 2
Bits per sample: 24
Bitrate: 1723 kbps
Codec: FLAC
================================================================================

––––––––––––––––––––––––––––––––––––––––
Analyzed: The Flaming Lips / Greatest Hits, Vol. 1 (Deluxe Edition)
––––––––––––––––––––––––––––––––––––––––

DR Peak RMS Duration Track
––––––––––––––––––––––––––––––––––––––––
DR4 -0.31 dB -5.52 dB 3:43 23-The WAND
DR7 -0.32 dB -8.67 dB 4:11 25-Vein of Stars
DR5 -0.30 dB -7.99 dB 5:09 45-Your Face Can Tell the Future
––––––––––––––––––––––––––––––––––––––––

Number of tracks: 3
Official DR value: DR5

Samplerate: 88200 Hz
Channels: 2
Bits per sample: 24
Bitrate: 3196 kbps
Codec: FLAC
================================================================================

––––––––––––––––––––––––––––––––––––––––
Analyzed: The Flaming Lips / Greatest Hits, Vol. 1 (Deluxe Edition)
––––––––––––––––––––––––––––––––––––––––

DR Peak RMS Duration Track
––––––––––––––––––––––––––––––––––––––––
DR6 -0.01 dB -7.66 dB 4:40 05-Turn It On
DR6 -0.30 dB -9.49 dB 3:20 06-She Don't Use Jelly
DR12 -4.48 dB -19.08 dB 3:49 07-Chewin the Apple of Your Eye
DR5 -0.30 dB -7.31 dB 5:53 08-Slow Nerve Action
DR6 -0.31 dB -8.73 dB 4:39 13-Bad Days (Aurally Excited Version)
DR5 -0.31 dB -6.97 dB 4:42 19-Yoshimi Battles the Pink Robots, Pt 1
DR7 -0.32 dB -8.98 dB 6:18 20-In the Morning of the Magicians
DR6 -0.32 dB -8.23 dB 3:54 21-All We Have Is Now
DR5 -0.31 dB -6.43 dB 3:33 22-Do You Realize
DR4 -0.31 dB -5.91 dB 4:22 24-Pompeii Am Gotterdammerung
DR4 -0.31 dB -6.30 dB 4:25 28-See the Leaves
DR5 -0.32 dB -7.24 dB 4:44 31-Try to Explain
DR4 -0.31 dB -6.03 dB 4:36 32-Always There, In Our Hearts
DR4 -0.30 dB -7.12 dB 4:25 33-How
DR4 -0.30 dB -6.16 dB 5:51 34-There Should Be Unicorns
DR3 -0.30 dB -5.34 dB 4:51 35-The Castle
DR7 -0.31 dB -9.68 dB 3:23 36-Zero to a Million
DR8 -0.31 dB -10.28 dB 4:22 37-Jets (Cupid's Kiss vs The Psyche of Death) [2-Track Demo]
DR6 -0.30 dB -8.82 dB 4:38 38-Thirty-Five Thousand Feet of Despair
DR4 -0.30 dB -6.04 dB 3:49 42-Up Above the Daily Hum
DR5 -0.72 dB -6.59 dB 4:04 46-You Gotta Hold On
DR6 -0.32 dB -7.77 dB 2:51 48-Spider-man vs Muhammad Ali
DR8 -0.41 dB -10.72 dB 4:33 52-Silent Night Lord, Can You Hear Me
––––––––––––––––––––––––––––––––––––––––

Number of tracks: 23
Official DR value: DR6

Samplerate: 96000 Hz
Channels: 2
Bits per sample: 24
Bitrate: 2925 kbps
Codec: FLAC
================================================================================


All thanks go to the original releaser