Tags
Language
Tags

The Internet - Hive Mind (2018) [Official Digital Download]

Posted By: Pisulik
The Internet - Hive Mind (2018) [Official Digital Download]

The Internet - Hive Mind (2018)
FLAC (tracks) 24-bit/44.1 kHz | Time - 57:49 minutes | 615 MB
Studio Master, Official Digital Download | Artwork: Front cover

Having sprung from L.A.’s Odd Future collective, Matt Martians and Syd innately understand the dynamics of collaboration and ego management. So when The Internet’s third album, Ego Death, was nominated for a Grammy in 2016, all five members dove into solo projects rather than crank out a follow-up. “I had a lot of music I needed to get out of my system that wouldn’t have made sense coming out under The Internet,” Syd told Beats 1 host Zane Lowe in May 2018. “It just made us all feel a lot more free and open to each other’s ideas.” The result is a more sonically inventive and personally assured record, and the cohesiveness is evident in everything from the lyrics to the title. “Going out on our own got us battle wounds that we can all relate to,” said Syd. “We all move in a unit now.”

Tracklist:

01. Come Together
02. Roll (Burbank Funk)
03. Come Over
04. La Di Da
05. Stay the Night
06. Bravo
07. Mood
08. Next Time Humble Pie
09. It Gets Better (With Time)
10. Look What U Started
11. Wanna Be
12. Beat Goes On
13. Hold On

foobar2000 1.3.7 / Dynamic Range Meter 1.1.1
log date: 2018-07-19 22:36:45

––––––––––––––––––––––––––––––––––––––––
Analyzed: The Internet / Hive Mind
––––––––––––––––––––––––––––––––––––––––

DR Peak RMS Duration Track
––––––––––––––––––––––––––––––––––––––––
DR5 -0.20 dB -7.51 dB 3:41 01-Come Together
DR7 -0.20 dB -8.18 dB 3:11 02-Roll (Burbank Funk)
DR6 -0.20 dB -7.89 dB 5:22 03-Come Over
DR6 -0.20 dB -8.20 dB 3:27 04-La Di Da
DR6 -1.05 dB -8.95 dB 4:22 05-Stay the Night
DR6 -0.20 dB -7.65 dB 3:26 06-Bravo
DR6 -0.20 dB -6.60 dB 3:18 07-Mood
DR5 -0.20 dB -7.34 dB 5:41 08-Next Time Humble Pie
DR7 -0.20 dB -8.53 dB 5:27 09-It Gets Better (With Time)
DR5 -0.20 dB -5.75 dB 4:31 10-Look What U Started
DR6 -0.20 dB -8.08 dB 4:27 11-Wanna Be
DR5 -0.20 dB -7.57 dB 4:16 12-Beat Goes On
DR8 -0.30 dB -9.89 dB 6:46 13-Hold On
––––––––––––––––––––––––––––––––––––––––

Number of tracks: 13
Official DR value: DR6

Samplerate: 44100 Hz
Channels: 2
Bits per sample: 24
Bitrate: 1384 kbps
Codec: FLAC
================================================================================


All thanks go to the original releaser