The Kinks - Kinks (1964/2018) [Official Digital Download 24/96]

Posted By: Pisulik
The Kinks - Kinks (1964/2018) [Official Digital Download 24/96]

The Kinks - Kinks (1964/2018)
FLAC (tracks) 24-bit/96 kHz | Time - 33:16 minutes | 412 MB
Studio Master, Official Digital Download | Artwork: Front cover

Although the best of the Kinks' early work is among the best British Invasion music, their initial pair of albums was far less consistent than those of the Beatles, Stones, and Who. Aside from the great "You Really Got Me," this was a shabby, disappointing set with surprisingly thin production. As R&B cover artists, the Kinks weren't nearly as adept as the Stones and Yardbirds; Ray Davies' original tunes were, "You Really Got Me" aside, perfunctory Merseybeat-ish pastiches, and a couple of tunes that producer Shel Talmy penned for the group ("Bald Headed Woman," "I've Been Driving on Bald Mountain") were simply abominable. The rave-up treatments of the R&B standards "Got Love If You Want It" and "Cadillac" were good, and the simple "Stop Your Sobbing" would eventually be covered by the Pretenders, but overall this is really patchy.

Tracklist:

01. Beautiful Delilah
02. So Mystifying
03. Just Can't Go to Sleep
04. Long Tall Shorty
05. I Took My Baby Home
06. I'm a Lover Not a Fighter
07. You Really Got Me
08. Cadillac
09. Bald Headed Woman
10. Revenge
11. Too Much Monkey Business
12. I've Been Driving on Bald Mountain
13. Stop Your Sobbing
14. Got Love If You Want It

foobar2000 1.3.7 / Dynamic Range Meter 1.1.1
log date: 2018-03-30 04:23:55

––––––––––––––––––––––––––––––––––––––––
Analyzed: The Kinks / Kinks
––––––––––––––––––––––––––––––––––––––––

DR Peak RMS Duration Track
––––––––––––––––––––––––––––––––––––––––
DR9 -0.01 dB -10.69 dB 2:08 01-Beautiful Delilah
DR10 -0.01 dB -11.44 dB 2:54 02-So Mystifying
DR10 -0.01 dB -12.10 dB 2:00 03-Just Can't Go to Sleep
DR10 -0.01 dB -12.27 dB 2:51 04-Long Tall Shorty
DR8 -0.01 dB -10.00 dB 1:50 05-I Took My Baby Home
DR10 0.00 dB -11.85 dB 2:05 06-I'm a Lover Not a Fighter
DR8 -0.01 dB -9.96 dB 2:15 07-You Really Got Me
DR8 -0.01 dB -9.31 dB 2:46 08-Cadillac
DR10 0.00 dB -12.37 dB 2:44 09-Bald Headed Woman
DR8 0.00 dB -10.35 dB 1:31 10-Revenge
DR9 -0.01 dB -9.86 dB 2:17 11-Too Much Monkey Business
DR8 0.00 dB -10.65 dB 2:03 12-I've Been Driving on Bald Mountain
DR10 0.00 dB -11.34 dB 2:08 13-Stop Your Sobbing
DR7 -0.01 dB -10.38 dB 3:45 14-Got Love If You Want It
––––––––––––––––––––––––––––––––––––––––

Number of tracks: 14
Official DR value: DR9

Samplerate: 96000 Hz
Channels: 2
Bits per sample: 24
Bitrate: 1717 kbps
Codec: FLAC
================================================================================


All thanks go to the original releaser