The Rolling Stones - Exile On Main Street (Remastered Deluxe Edition) (1972/2020) [Official Digital Download]

Posted By: pyatak
The Rolling Stones - Exile On Main Street (Remastered Deluxe Edition) (1972/2020) [Official Digital Download]

The Rolling Stones - Exile On Main Street (Remastered Deluxe Edition) (1972/2020) [Official Digital Download]
FLAC (tracks) 24-bit/44.1 kHz | Front Cover | Time - 01:48:08 minutes | 1,28 GB
Rock | Label: Polydor Records, Official Digital Download

Regarded as one of the greatest albums in Rock 'n' Roll history and one of the most defining of the Stones' catalogue.

Upon its release more than three decades ago, 'Exile on Main Street' innovatively wove varying musical genres, instruments and even artists into a compelling rhythmic masterpiece. This new compilation features 10 tracks originally recorded during the Exile era and only recently discovered while working on the reissue project. The unearthed tracks which include such titles as 'Plundered My Soul', 'Dancing in the Light', 'Following the River' and 'Pass The Wine' have undergone a unique evolution, while staying true to the essence of the 1972 album. Alternate versions of 'Soul Survivor' and 'Loving Cup' also are a part of the Exile bonus materials.

The original 18-track double-album was recorded in various stages at multiple locations, including Olympic Studios in London, Keith Richard’s mansion Nellcote in France, and in Los Angeles where the literal 'Main Street' influenced the album title. These atypical circumstances surrounding the recording process greatly affected the album’s outcome which was highly reflective and influenced by the sociopolitical turbulence that marked the late `60s and early `70s. The Stones nixed the influences of a flower-child era and directed their creative process with the edgier, excessive, "more is more2 approach of the `70s. Exile reveals a sprawling mix of genres with undertones of blues, country, R&B and gospel mixed with lyrics that fervently demand for release and liberation.

The album pulled together an electric array of talent including Dr. John, the late Billy Preston and pianist Nicky Hopkins. Guitarist Mick Taylor, who replaced Brian Jones in the band shortly before Jones died in 1969, is a magnificent blues player who brought an intensity and elegance to these epic tracks. At times, these musicians and others lived on the recording studio premises with the band creating an extremely open and creative collaboration for the album.

The album’s riveting portrait of artists pushed – by the times, by themselves – to the very limits of their creativity has provided inspiration to every musical generation that has come along since Exile was released in 1972", said author Anthony DeCurtis. "Every song on Exile on Main Street is elevated by its relationship to the music that comes before and after it. The album’s irresistible power is unlikely to diminish any time soon"

"Greeted with decidedly mixed reviews upon its original release, Exile on Main St. has become generally regarded as the Rolling Stones' finest album. Part of the reason why the record was initially greeted with hesitant reviews is that it takes a while to assimilate. A sprawling, weary double album encompassing rock & roll, blues, soul, and country, Exile doesn't try anything new on the surface, but the substance is new. Taking the bleakness that underpinned Let It Bleed and Sticky Fingers to an extreme, Exile is a weary record, and not just lyrically. Jagger's vocals are buried in the mix, and the music is a series of dark, dense jams, with Keith Richards and Mick Taylor spinning off incredible riffs and solos. And the songs continue the breakthroughs of their three previous albums. No longer does their country sound forced or kitschy – it's lived-in and complex, just like the group's forays into soul and gospel. While the songs, including the masterpieces "Rocks Off," "Tumbling Dice," "Torn and Frayed," "Happy," "Let It Loose," and "Shine a Light," are all terrific, they blend together, with only certain lyrics and guitar lines emerging from the murk. It's the kind of record that's gripping on the very first listen, but each subsequent listen reveals something new. Few other albums, let alone double albums, have been so rich and masterful as Exile on Main St., and it stands not only as one of the Stones' best records, but sets a remarkably high standard for all of hard rock." (Stephen Thomas Erlewine, AMG)

The Rolling Stones

Recorded October 1970, June 1971 – March 1972 at Olympic, London; villa Nellcôte, France; Stargroves Manor, England; Sunset Sound Recorders, Los Angeles
Produced by Jimmy Miller

TRACKLIST
1. The Rolling Stones - Rocks Off
2. The Rolling Stones - Rip This Joint
3. The Rolling Stones - Shake Your Hips
4. The Rolling Stones - Casino Boogie
5. The Rolling Stones - Tumbling Dice
6. The Rolling Stones - Sweet Virginia
7. The Rolling Stones - Torn And Frayed
8. The Rolling Stones - Sweet Black Angel
9. The Rolling Stones - Loving Cup
10. The Rolling Stones - Happy
11. The Rolling Stones - Turd On The Run
12. The Rolling Stones - Ventilator Blues
13. The Rolling Stones - I Just Want To See His Face
14. The Rolling Stones - Let It Loose
15. The Rolling Stones - All Down The Line
16. The Rolling Stones - Stop Breaking Down
17. The Rolling Stones - Shine A Light
18. The Rolling Stones - Soul Survivor
19. The Rolling Stones - Pass The Wine (Sophia Loren)
20. The Rolling Stones - Plundered My Soul
21. The Rolling Stones - I'm Not Signifying
22. The Rolling Stones - Following The River
23. The Rolling Stones - Dancing In The Light
24. The Rolling Stones - So Divine (Aladdin Story)
25. The Rolling Stones - Loving Cup
26. The Rolling Stones - Soul Survivor
27. The Rolling Stones - Good Time Women
28. The Rolling Stones - Title 5

foobar2000 1.3.16 / Dynamic Range Meter 1.1.1
log date: 2020-07-03 03:13:31

––––––––––––––––––––––––––––––––––––––––
Analyzed: The Rolling Stones / Exile On Main Street (Remastered Deluxe Edition)
––––––––––––––––––––––––––––––––––––––––

DR Peak RMS Duration Track
––––––––––––––––––––––––––––––––––––––––
DR7 -0.60 dB -8.79 dB 4:33 01-Rocks Off
DR7 -0.60 dB -8.24 dB 2:23 02-Rip This Joint
DR10 -0.60 dB -11.98 dB 2:59 03-Shake Your Hips
DR8 -0.60 dB -10.72 dB 3:35 04-Casino Boogie
DR6 -0.80 dB -8.57 dB 3:47 05-Tumbling Dice
DR6 -0.60 dB -9.38 dB 4:26 06-Sweet Virginia
DR6 -0.50 dB -8.05 dB 4:18 07-Torn And Frayed
DR9 -0.60 dB -11.11 dB 2:58 08-Sweet Black Angel
DR7 -0.60 dB -10.33 dB 4:26 09-Loving Cup
DR6 -0.60 dB -8.03 dB 3:05 10-Happy
DR8 -0.50 dB -9.22 dB 2:38 11-Turd On The Run
DR8 -0.60 dB -11.08 dB 3:24 12-Ventilator Blues
DR11 -0.60 dB -14.30 dB 2:54 13-I Just Want To See His Face
DR6 -0.60 dB -9.37 dB 5:19 14-Let It Loose
DR6 -0.60 dB -8.06 dB 3:50 15-All Down The Line
DR6 -0.60 dB -7.52 dB 4:35 16-Stop Breaking Down
DR7 -0.60 dB -10.34 dB 4:17 17-Shine A Light
DR6 -0.60 dB -8.66 dB 3:49 18-Soul Survivor
DR8 -0.51 dB -9.68 dB 4:54 19-Pass The Wine (Sophia Loren)
DR7 -0.51 dB -8.82 dB 3:59 20-Plundered My Soul
DR8 -0.51 dB -10.81 dB 3:57 21-I'm Not Signifying
DR6 -0.51 dB -9.84 dB 4:52 22-Following The River
DR7 -0.51 dB -8.49 dB 4:22 23-Dancing In The Light
DR7 -0.51 dB -9.19 dB 4:33 24-So Divine (Aladdin Story)
DR7 -0.51 dB -9.01 dB 5:26 25-Loving Cup
DR7 -0.51 dB -8.84 dB 3:59 26-Soul Survivor
DR7 -0.51 dB -8.78 dB 3:21 27-Good Time Women
DR6 -0.51 dB -8.23 dB 1:47 28-Title 5
––––––––––––––––––––––––––––––––––––––––

Number of tracks: 28
Official DR value: DR7

Samplerate: 44100 Hz
Channels: 2
Bits per sample: 24
Bitrate: 1710 kbps
Codec: FLAC
================================================================================



Thanks to the Original customer.