Tags
Language
Tags

The Weather Station - The Weather Station (2017) [Official Digital Download]

Posted By: Pisulik
The Weather Station - The Weather Station (2017) [Official Digital Download]

The Weather Station - The Weather Station (2017)
FLAC (tracks) 24-bit/44.1 kHz | Time - 37:30 minutes | 401 MB
Studio Master, Official Digital Download | Artwork: Front cover

On her fourth (and tellingly self-titled) album as The Weather Station, Tamara Lindeman reinvents, and more deeply roots, her extraordinary, acclaimed songcraft, framing her precisely detailed, exquisitely wrought prose-poem narratives in bolder and more cinematic musical settings. The result is her most sonically direct and emotionally candid statement to date. The most fully realized statement to date from Toronto songwriter Tamara Lindeman. Self-titled and self-produced, the album unearths a vital new energy from Lindeman's acclaimed songwriting practice, marrying it to a bold new sense of confidence. 'I wanted to make a rock and roll record,' Lindeman explains, 'but one that sounded how I wanted it to sound, which of course is nothing like rock and roll.' The result is a spirited, frequently topical tour de force that declares its understated feminist politics, and its ambitious new sonic directions, from its first moments. Opener 'Free,' with its jagged distorted guitar, is wryly anti-freedom how very un-rock-and-roll! in response to mansplaining chatter: 'Was I free as I should be, or free as you were? Is it me that you're talking to? I never could stand those simple words.' Lindeman's songwriting has always been deconstructive, subtly undermining the monoliths of genre with her sly sense of complexity and irony. She has generally been characterized as a folk musician, and yet with its subtext of community and tradition, the term 'folk' has never quite fit The Weather Station's work; the songs are too specific and lacerating. So appropriately, Lindeman's so-called 'rock and roll record' suspiciously stares down those genre signifiers big, buzzing guitars, thrusting drums and interweaves horror-movie strings and her keening, Appalachian-tinged vocal melodies. Reaching towards a sort of accelerated talking blues, she sings As she hits the climax of 'Thirty,' a poignant, bittersweet story of a passing crush, you realize she has been singing incessantly for the last two minutes, with nods to gasoline prices, antidepressants, a father in Nairobi how she 'noticed fcuking everything: the light, the reflections, different languages, your expressions.' On past records, Lindeman has been a master of economy. Here her precisely detailed prose-poem narratives remain as exquisitely wrought as ever, but they inhabit an idiosyncratic, sometimes disorderly, and often daring album that feels, and reads, like a collection of obliquely gut-punching short stories. The characters of The Weather Station are navigating the unknowable, the frontiers of anxiety, empathy, and communication. On 'Power' Lindeman expresses desire for strength and control as decline rather than ascent. 'Black Flies' conjures a natural world as discomfiting andforbidding as the distances between us: 'Straight line of horizon, and the ocean painful wide … Every crooked wordspoken still ringing in your ears like the whine of mosquitoes.' Heatstricken 'Complicit' raises the specter of climatechange; as 'all the hot winds blow' and her guitar knots itself into a helical riff, Lindeman reminds us, 'you and I, weare complicit' in the escalating disaster. After two records made in close collaboration with other musicians Lindeman self produced, taking full creative control for the first time since her debut. The band comprised touringbassist Ben Whiteley, drummer Don Kerr, and disparate guests, including Ryan Driver (Jennifer Castle), Ben Boye (Ryley Walker), and Will Kidman (The Constantines). The cover of Loyalty memorably featured the back of Lindeman's head. On the cover of this record, by contrast, shestares directly into the camera, insouciant in blue jeans, frozen in an artless, almost awkward pose. The Weather Station is her most direct and candid record, and the first one to include tracks one might characterize as pop songs.

Tracklist:

01. Free
02. Thirty
03. You And I (On The Other Side Of The World)
04. Kept It All To Myself
05. Impossible
06. Power
07. Complicit
08. Black Flies
09. I Don't Know What To Say
10. In An Hour
11. The Most Dangerous Thing About You

foobar2000 1.3.7 / Dynamic Range Meter 1.1.1
log date: 2018-02-15 08:11:26

––––––––––––––––––––––––––––––––––––––––
Analyzed: The Weather Station / The Weather Station
––––––––––––––––––––––––––––––––––––––––

DR Peak RMS Duration Track
––––––––––––––––––––––––––––––––––––––––
DR8 -0.05 dB -10.36 dB 3:07 01-Free
DR8 -0.05 dB -10.41 dB 3:40 02-Thirty
DR8 -0.05 dB -10.00 dB 4:40 03-You And I (On The Other Side Of The World)
DR9 -0.05 dB -9.91 dB 3:09 04-Kept It All To Myself
DR8 -0.05 dB -9.41 dB 3:23 05-Impossible
DR10 -0.05 dB -13.09 dB 4:36 06-Power
DR8 -0.05 dB -8.85 dB 3:34 07-Complicit
DR9 -0.05 dB -10.35 dB 2:10 08-Black Flies
DR9 -0.05 dB -11.05 dB 2:49 09-I Don't Know What To Say
DR9 -0.05 dB -10.64 dB 2:54 10-In An Hour
DR9 -0.05 dB -11.70 dB 3:32 11-The Most Dangerous Thing About You
––––––––––––––––––––––––––––––––––––––––

Number of tracks: 11
Official DR value: DR9

Samplerate: 44100 Hz
Channels: 2
Bits per sample: 24
Bitrate: 1388 kbps
Codec: FLAC
================================================================================


All thanks go to the original releaser