The Yardarm - The Yardarm (1973/2021) [Official Digital Download]

Posted By: pyatak
The Yardarm - The Yardarm (1973/2021) [Official Digital Download]

The Yardarm - The Yardarm (1973/2021) [Official Digital Download]
FLAC (tracks) 24-bit/44.1 kHz | Front Cover | Time - 42:58 minutes | 481 MB
Folk | Label: Cherry Red Records, Official Digital Download

THE YARDARM The Yardarm (Rare 1973 UK 12-track vinyl LP on the collectable Westwood, the second of only two releases by the four-piece, fantastic heritage folk with fiddle, banjo, 12-string guitar and wonderful warm vocals, matt picture sleeve. The sleeve is remarkable condition for such a wear prone construction, showing just a little creasing and almost negligable print fade on the reverse, whilst the vinyl has just a few light scuffs and a little spindle wear to indicate play. All in all a fantastic copy WRS026).

TRACKLIST

1. The Yardarm - The Beggar Comes
2. The Yardarm - Shipyard Apprentice
3. The Yardarm - Lowlands Of Holland
4. The Yardarm - Caravan
5. The Yardarm - An Empty Seat
6. The Yardarm - Writer Of Songs
7. The Yardarm - Van Deiman's Land
8. The Yardarm - Jodie
9. The Yardarm - Bedlam Boys
10. The Yardarm - I Am The Great Sun
11. The Yardarm - Abroad As I Was Walkinng
12. The Yardarm - I'll Show You Where To Sleep

foobar2000 1.6.2 / Dynamic Range Meter 1.1.1
log date: 2021-04-29 08:46:40

––––––––––––––––––––––––––––––––––––––––
Analyzed: The Yardarm / The Yardarm
––––––––––––––––––––––––––––––––––––––––

DR Peak RMS Duration Track
––––––––––––––––––––––––––––––––––––––––
DR10 -0.74 dB -12.45 dB 4:17 01-The Beggar Comes
DR11 -0.76 dB -13.85 dB 2:39 02-Shipyard Apprentice
DR10 -0.74 dB -12.69 dB 3:40 03-Lowlands Of Holland
DR10 -0.76 dB -13.01 dB 2:38 04-Caravan
DR12 -0.78 dB -15.00 dB 4:06 05-An Empty Seat
DR11 -0.83 dB -13.94 dB 4:09 06-Writer Of Songs
DR11 -0.77 dB -14.56 dB 4:09 07-Van Deiman's Land
DR10 -0.74 dB -13.40 dB 3:21 08-Jodie
DR11 -0.99 dB -14.21 dB 3:54 09-Bedlam Boys
DR11 -0.76 dB -13.33 dB 2:35 10-I Am The Great Sun
DR10 -0.81 dB -13.08 dB 3:35 11-Abroad As I Was Walkinng
DR10 -0.78 dB -13.59 dB 3:57 12-I'll Show You Where To Sleep
––––––––––––––––––––––––––––––––––––––––

Number of tracks: 12
Official DR value: DR11

Samplerate: 44100 Hz
Channels: 2
Bits per sample: 24
Bitrate: 1557 kbps
Codec: FLAC
================================================================================



Thanks to the Original customer.