Thomas Schippers - Prokofiev Symphony No. 5 in B-Flat Major, Op. 100 (2021) [Official Digital Download]

Posted By: pyatak
Thomas Schippers - Prokofiev Symphony No. 5 in B-Flat Major, Op. 100 (2021) [Official Digital Download]

Thomas Schippers - Prokofiev Symphony No. 5 in B-Flat Major, Op. 100 (2021) [Official Digital Download]
FLAC (tracks) 24-bit/48 kHz | Front Cover | Time - 83:21 minutes | 891 MB
Classical | Label: Jube Classic, Official Digital Download

Thomas Schippers was a talented American conductors and a particular champion of the music of Samuel Barber. He played at a public piano recital at the age of six and was a church organist when he was 14. He continued his piano studies at the Curtis Institute of Music in Philadelphia (1944-1945). He also studied privately with Olga Samaroff (1946-1947). He went on to Yale University, where he had some lessons in composition with Paul Hindemith.
In 1948 he took second prize in the Philadelphia Orchestra's young conductor's contest. He took a job as organist of the Greenwich Village Presbyterian Church in New York. He and group of other young musicians formed a group called the Lemonade Opera Company, which he conducted for several years.

TRACKLIST

01. Thomas Schippers - I. Andante
02. Thomas Schippers - II. Allegro marcato
03. Thomas Schippers - III. Adagio
04. Thomas Schippers - IV. Allegro giocoso
05. Thomas Schippers - Prologue. Once There Lived a Man in a Castle
06. Thomas Schippers - Interlude (1)
07. Thomas Schippers - No. 1, Every Sunday Afternoon
08. Thomas Schippers - Interlude (2)
09. Thomas Schippers - No. 2, One Sunday Afternoon the Proud Man of the Castle
10. Thomas Schippers - No. 3, Unicorn! Unicorn!
11. Thomas Schippers - No. 4, Why Are You Sad, My Darling? (1)
12. Thomas Schippers - Interlude (3)
13. Thomas Schippers - No. 5, Behold the Gorgon
14. Thomas Schippers - No. 6, Wicked Is Man
15. Thomas Schippers - No. 7, Why Are You Sad, My Darling (2)
16. Thomas Schippers - Interlude (4)
17. Thomas Schippers - No. 8, Do Not Caress the Lonely Manticore
18. Thomas Schippers - No. 9, And What Is That? This Is the Manticorn
19. Thomas Schippers - Interlude (5)
20. Thomas Schippers - No. 10, Why Are You Sad, My Darling (3)
21. Thomas Schippers - Interlude (6)
22. Thomas Schippers - No. 11, Have You Noticed the Man in the Castle Was Seen No More
23. Thomas Schippers - The March to the Castle
24. Thomas Schippers - No. 12, Oh, Foolish People

foobar2000 1.6.2 / Dynamic Range Meter 1.1.1
log date: 2021-06-11 17:47:10

––––––––––––––––––––––––––––––––––––––––
Analyzed: Thomas Schippers / Prokofiev: Symphony No. 5 in B-Flat Major, Op. 100 - Menotti: The Unicorn, the Gorgon and the Manticore
––––––––––––––––––––––––––––––––––––––––

DR Peak RMS Duration Track
––––––––––––––––––––––––––––––––––––––––
DR11 -0.02 dB -15.38 dB 13:46 01-I. Andante
DR12 -0.02 dB -17.98 dB 8:05 02-II. Allegro marcato
DR13 -0.02 dB -18.89 dB 12:35 03-III. Adagio
DR12 -0.02 dB -19.19 dB 9:18 04-IV. Allegro giocoso
DR11 -0.02 dB -17.18 dB 0:57 05-Prologue. Once There Lived a Man in a Castle
DR13 -0.02 dB -16.46 dB 1:31 06-Interlude (1)
DR13 -0.02 dB -17.85 dB 1:50 07-No. 1, Every Sunday Afternoon
DR12 -0.02 dB -16.19 dB 1:15 08-Interlude (2)
DR10 -0.02 dB -14.87 dB 2:10 09-No. 2, One Sunday Afternoon the Proud Man of the Castle
DR12 -0.02 dB -15.85 dB 2:48 10-No. 3, Unicorn! Unicorn!
DR11 -0.02 dB -15.39 dB 3:12 11-No. 4, Why Are You Sad, My Darling? (1)
DR14 -0.02 dB -16.66 dB 1:13 12-Interlude (3)
DR11 -0.02 dB -15.89 dB 2:19 13-No. 5, Behold the Gorgon
DR12 -0.02 dB -17.14 dB 2:15 14-No. 6, Wicked Is Man
DR10 -0.02 dB -14.35 dB 2:52 15-No. 7, Why Are You Sad, My Darling (2)
DR12 -0.02 dB -16.36 dB 2:39 16-Interlude (4)
DR11 -0.02 dB -17.23 dB 1:37 17-No. 8, Do Not Caress the Lonely Manticore
DR11 -0.02 dB -15.58 dB 0:57 18-No. 9, And What Is That? This Is the Manticorn
DR10 -0.02 dB -14.53 dB 1:00 19-Interlude (5)
DR12 -0.02 dB -17.84 dB 2:21 20-No. 10, Why Are You Sad, My Darling (3)
DR12 -0.02 dB -16.29 dB 1:13 21-Interlude (6)
DR13 -0.02 dB -17.50 dB 0:48 22-No. 11, Have You Noticed the Man in the Castle Was Seen No More
DR13 -0.02 dB -17.14 dB 2:09 23-The March to the Castle
DR12 -0.02 dB -17.08 dB 4:30 24-No. 12, Oh, Foolish People
––––––––––––––––––––––––––––––––––––––––

Number of tracks: 24
Official DR value: DR12

Samplerate: 48000 Hz
Channels: 2
Bits per sample: 24
Bitrate: 1287 kbps
Codec: FLAC
================================================================================



Thanks to the Original customer.