Tom Waits - Foreign Affairs (Remastered) (1977/2018) [Official Digital Download 24/96]

Posted By: Pisulik
Tom Waits - Foreign Affairs (Remastered) (1977/2018) [Official Digital Download 24/96]

Tom Waits - Foreign Affairs (Remastered) (1977/2018)
FLAC (tracks) 24-bit/96 kHz | Time - 42:03 minutes | 702 MB
Studio Master, Official Digital Download | Artwork: Front cover

Absolutely essential. ANTI- are releasing mastered reissues of Tom Waits first seven albums, originally released through Elektra Asylum Records in the 1970’s. 1977’s Foreign Affairs takes the jazz and poetry that Tom Waits explored on his earlier albums in a more cinematic direction, foreshadowing his own breakthrough work in the 80s. Opening with the instrumental Cinny’s Waltz and featuring some new standards like Muriel and I Never Talk To Strangers, his dramatic duet with Bette Midler, this album gets into some of Waits’ most ambitious storytelling ever. Foreign Affairs also features the jazzy, colourful Jack and Neil and the sweeping, dramatic Potters Field as well as classic Waits ballads Burma Shave and Sight for Sore Eyes.

Foreign Affairs is possibly Waits’ most consistently “Chandlerian” album, a series of vignettes from “dimestore novels” and “penny arcades” that could all take place in the same seedy block of skid row Los Angeles (or New York, in the case of “Potter’s Field”). Features Waits’ duet with Bette Midler on the singles-bar dialogue "I Never Talk to Strangers" and his take on his Beat predecessors Jack Kerouac and Neal Cassidy on "Jack & Neal."

Tom Waits gives one side of his fifth album, Foreign Affairs, to his more structured, bluesy ballads and the other to his jazz raps. On side one, you get his duet with Bette Midler on the singles-bar dialogue "I Never Talk to Strangers" and his take on his Beat predecessors Jack Kerouac and Neal Cassidy on "Jack & Neal." On side two, you find the extended observations of "Potter's Field" and "Burma-shave." Waits' voice is becoming ever more gravelly, but his basic musical approach remaines the same, and by this point he'd attracted a steady cult audience that enjoyed his verbal flights and boozy philosopher persona, even as critics began to complain that he was repeating himself.

Tracklist:

01. Cinny’s Waltz
02. Muriel
03. I Never Talk To Strangers
04. Medley: Jack & Neal / California, Here I Come
05. A Sight For Sore Eyes
06. Potter’s Field
07. Burma-Shave
08. Barber Shop
09. Foreign Affair

Personnel:

Tom Waits, piano, vocals
Gene Cipriano, clarinet solos on "Potter's Field"
Jim Hughart, bass
Shelly Manne, drums
Bette Midler, vocals on "I Never Talk to Strangers"
Jack Sheldon, trumpet solos
Frank Vicari, tenor saxophone solos

foobar2000 1.3.7 / Dynamic Range Meter 1.1.1
log date: 2018-03-08 15:30:55

––––––––––––––––––––––––––––––––––––––––
Analyzed: Tom Waits / Foreign Affairs (Remastered)
––––––––––––––––––––––––––––––––––––––––

DR Peak RMS Duration Track
––––––––––––––––––––––––––––––––––––––––
DR10 -0.08 dB -13.94 dB 2:17 01-Cinny’s Waltz
DR12 -0.13 dB -15.30 dB 3:34 02-Muriel
DR11 -0.70 dB -14.63 dB 3:38 03-I Never Talk To Strangers
DR10 -0.06 dB -12.27 dB 5:01 04-Medley Jack & Neal California, Here I Come
DR12 -0.12 dB -15.23 dB 4:40 05-A Sight For Sore Eyes
DR12 -0.08 dB -14.88 dB 8:40 06-Potter’s Field
DR12 -0.07 dB -15.81 dB 6:35 07-Burma-Shave
DR10 -0.07 dB -12.36 dB 3:55 08-Barber Shop
DR11 -0.18 dB -14.09 dB 3:46 09-Foreign Affair
––––––––––––––––––––––––––––––––––––––––

Number of tracks: 9
Official DR value: DR11

Samplerate: 96000 Hz
Channels: 2
Bits per sample: 24
Bitrate: 2326 kbps
Codec: FLAC
================================================================================


All thanks go to the original releaser