TootArd - Migrant Birds (2020) [Official Digital Download]

Posted By: pyatak
TootArd - Migrant Birds (2020) [Official Digital Download]

TootArd - Migrant Birds (2020) [Official Digital Download]
FLAC (tracks) 24-bit/48 kHz | Front Cover | Time - 43:03 minutes | 526 MB
Folk | Label: Glitterbeat Records, Official Digital Download

This inventive duo of brothers from the Golan Heights – Hasan and Rami Nakhleh – return with an infectious re-imagining of their sound. Jammed full of pop hooks and quarter-tone melodic lines, “Migrant Birds” unleashes a disco whirlwind that pays homage to the Middle Eastern dancefloor scenes of the 80’s. Retro funky meets hi-sheen contemporary.

It’s 1980. You’re in a disco, maybe in Beirut or Cairo, almost anywhere in the Middle East, lost in the colours and the lights, overwhelmed by the sound of drum machines and keyboards. It’s heady, it’s beautiful…but those days are long gone; maybe they were only ever just a fantasy. Real or not, they provide the inspiration for Migrant Birds, the new synth-powered album from TootArd that takes them to the dancefloor, about as far from the spare, guitar-driven desert blues of their highly touted Glitterbeat debut Laissez Passer, as it’s possible to go.

“After that record, Rami and I started listening to different things, dance music and old disco,” explains keyboard player and guitarist Hasan Nakhleh. “When we were little, we had compilations of 80s hits that we played over and over. We didn’t know the artists, but we knew all the melodies and harmonies. A lot of that was dance music. Back then, our family had an Arabic synthesizer with the quarter-tones, called a PSR-62, Oriental Model that I loved to play as a kid. My family still has a similar one. I bought an Oriental and began messing around. That was how Migrant Birds was born.”

The 80s may be the catalyst, with the glittering, hedonistic party vibe. But the real roots of the music here run deeper, to musicians like keyboardist Magdi al-Husseini and Ihsan Al-Munzer, who were the first to introduce synthesizers to the Arabic classical style, or Omar Khorshid, who pioneered the addition of electric guitar and worked with the legendary Umm Kulthum. They brought Arabic music firmly into the modern age.

“They were definitely big influences on me,” Nakhleh says, “I write to carry on and do more with the sounds they brought.” Migrant Birds winds all those strands from the past together into a very intricately-crafted whole with a full sound. While Nakhleh plays synthesizer on every track, he doesn’t completely ignore the guitar that was his trademark for so long. It’s there, but this time buried below the surface to bolster the rhythm, while the drums, played again by Nakhleh’s brother and co-conspirator Rami, are a carefully layered mix of machine and kit.

TRACKLIST

1. TootArd - Moonlight
2. TootArd - Emotional Twist
3. TootArd - Open Sesame
4. TootArd - Wanderlust
5. TootArd - Trouble Watan
6. TootArd - Pretty Woman
7. TootArd - Kiss
8. TootArd - Babe
9. TootArd - Ya Ghali
10. TootArd - Red Sea Disco
11. TootArd - Stone Heap of the Wild Cat
12. TootArd - Remote Love

foobar2000 1.3.16 / Dynamic Range Meter 1.1.1
log date: 2020-06-02 01:28:12

––––––––––––––––––––––––––––––––––––––––
Analyzed: TootArd / Migrant Birds
––––––––––––––––––––––––––––––––––––––––

DR Peak RMS Duration Track
––––––––––––––––––––––––––––––––––––––––
DR10 -0.11 dB -11.65 dB 3:58 01-Moonlight
DR11 -0.19 dB -11.76 dB 3:43 02-Emotional Twist
DR10 -0.15 dB -11.75 dB 3:22 03-Open Sesame
DR10 -0.15 dB -11.57 dB 3:19 04-Wanderlust
DR11 -0.19 dB -11.93 dB 3:21 05-Trouble Watan
DR11 -0.17 dB -12.49 dB 3:30 06-Pretty Woman
DR10 -0.11 dB -11.29 dB 3:33 07-Kiss
DR11 -0.09 dB -12.15 dB 3:14 08-Babe
DR12 -0.22 dB -13.49 dB 4:02 09-Ya Ghali
DR11 -0.21 dB -12.54 dB 2:54 10-Red Sea Disco
DR10 -0.13 dB -11.33 dB 3:51 11-Stone Heap of the Wild Cat
DR13 -0.10 dB -15.25 dB 4:16 12-Remote Love
––––––––––––––––––––––––––––––––––––––––

Number of tracks: 12
Official DR value: DR11

Samplerate: 48000 Hz
Channels: 2
Bits per sample: 24
Bitrate: 1619 kbps
Codec: FLAC
================================================================================



Thanks to the Original customer.