Tags
Language
Tags

Train - Drops Of Jupiter (Remastered) (2000/2021) [Official Digital Download 24/96]

Posted By: pyatak
Train - Drops Of Jupiter (Remastered) (2000/2021) [Official Digital Download 24/96]

Train - Drops Of Jupiter (Remastered) (2000/2021) [Official Digital Download 24/96]
FLAC (tracks) 24-bit/96 kHz | Front Cover | Time - 47:55 minutes | 1,01 GB
Rock | Label: Columbia/Legacy, Official Digital Download

Drops of Jupiter is the second studio album by American pop rock band Train, released in 2001. The album's title is derived from "Drops of Jupiter (Tell Me)", its lead single, which was a hit internationally and won the Grammy Award for Best Rock Song.

The album contains elements of rock, country and indie rock. Besides "Drops of Jupiter (Tell Me)", two other singles were released from this album: "She's on Fire" and "Something More," both of which also achieved some success on the Adult Top 40 chart.

"Drops of Jupiter, conjuring vivid memories of Recovering The Satellites. The anthemic song is the centerpiece here, showcasing the singer's yearning voice and band's swooping, string-laden melodies, but Train has more to offer. The brooding "Mississippi" presents an intoxicating mix of acoustic guitars and dreamy horns, while "Let It Roll" mixes mournful slide guitars and loose-limbed rhythms in the perfect meeting of blustery earnestness and unapologetic commerciality." (Rolling Stone)

TRACKLIST

1. Train - She's On Fire
2. Train - I Wish You Would
3. Train - Drops of Jupiter (Tell Me)
4. Train - It's About You
5. Train - Hopeless
6. Train - Respect
7. Train - Let It Roll
8. Train - Something More
9. Train - Whipping Boy
10. Train - Getaway
11. Train - Mississippi

foobar2000 1.6.2 / Dynamic Range Meter 1.1.1
log date: 2021-04-16 11:39:21

––––––––––––––––––––––––––––––––––––––––
Analyzed: Train / Drops Of Jupiter (Remastered)
––––––––––––––––––––––––––––––––––––––––

DR Peak RMS Duration Track
––––––––––––––––––––––––––––––––––––––––
DR6 0.00 dB -7.17 dB 3:49 01-She's On Fire
DR7 0.00 dB -8.19 dB 4:24 02-I Wish You Would
DR6 0.00 dB -7.61 dB 4:20 03-Drops of Jupiter (Tell Me)
DR6 0.00 dB -8.18 dB 4:25 04-It's About You
DR7 0.00 dB -9.06 dB 4:31 05-Hopeless
DR6 0.00 dB -7.50 dB 3:26 06-Respect
DR7 0.00 dB -8.85 dB 4:34 07-Let It Roll
DR6 0.00 dB -7.24 dB 4:34 08-Something More
DR6 0.00 dB -7.86 dB 4:27 09-Whipping Boy
DR6 0.00 dB -7.64 dB 4:25 10-Getaway
DR10 0.00 dB -11.26 dB 5:05 11-Mississippi
––––––––––––––––––––––––––––––––––––––––

Number of tracks: 11
Official DR value: DR7

Samplerate: 96000 Hz
Channels: 2
Bits per sample: 24
Bitrate: 2902 kbps
Codec: FLAC
================================================================================



Thanks to the Original customer.