Kim Kashkashian, Sivan Magen & Marina Piccinini - Tre Voci: Takemitsu / Debussy / Gubaidulina (2014) [24/96]

Posted By: SERTiL
Kim Kashkashian, Sivan Magen & Marina Piccinini - Tre Voci: Takemitsu / Debussy / Gubaidulina (2014) [24/96]

Kim Kashkashian, Sivan Magen & Marina Piccinini - Tre Voci: Takemitsu / Debussy / Gubaidulina (2014)
FLAC (tracks) 24-bit/96 kHz | Time - 52:05 minutes | 879 MB
Studio Master, Official Digital Download | Artwork: Digital Booklet

On this compelling first release it revolves around Debussy’s 1915 Sonata for flute, viola and harp and its influence, most directly felt in Takemitsu’s shimmering ‘And then I knew ‘twas wind’. Debussy himself had been profoundly moved by his encounter with music of the East and in his last works was emphasizing tone-colour, texture and timbre and a different kind of temporal flow. In this music, the elasticity of Debussy’s feeling for time (as Heinz Holliger observed) pointed far into the future and to the works of Boulez. And indeed to the music of Sofia Gubaidulina, whose ‘Garden of Joys and Sorrows’ makes its own reckoning with orient and occident. Gubaidulina has said that she considers herself “a daughter of two worlds, whose soul lives in the music of the East and the West”. Produced by Manfred Eicher in the Lugano Studio.

Tracklist:
01. Takemitsu: And Then I Knew 't Was Wind (15:10)
02. 1. Pastorale (7:07)
03. 2. Interlude (6:09)
04. 3. Finale (4:56)
05. Gubaidulina: Garten von Freuden und Traurigkeiten (18:46)

Personnel:
Kim Kashkashian, viola
Marina Piccinini, flute
Sivan Magen, harp

foobar2000 1.3.7 / Dynamic Range Meter 1.1.1
log date: 2020-01-12 13:04:08

––––––––––––––––––––––––––––––––––––––––
Analyzed: Kim Kashkashian / Toru Takemitsu - Claude Debussy - Sofia Gubaidulina
––––––––––––––––––––––––––––––––––––––––

DR Peak RMS Duration Track
––––––––––––––––––––––––––––––––––––––––
DR15 -4.17 dB -26.75 dB 15:10 01-Takemitsu: And Then I Knew 't Was Wind
DR14 -3.46 dB -23.73 dB 7:07 02-1. Pastorale
DR15 -0.83 dB -23.04 dB 6:09 03-2. Interlude
DR15 -0.08 dB -20.31 dB 4:56 04-3. Finale
DR16 -0.07 dB -22.38 dB 18:46 05-Gubaidulina: Garten von Freuden und Traurigkeiten
––––––––––––––––––––––––––––––––––––––––

Number of tracks: 5
Official DR value: DR15

Samplerate: 96000 Hz
Channels: 2
Bits per sample: 24
Bitrate: 2347 kbps
Codec: FLAC
================================================================================


Thanks to the Original customer.