Trio Rodin - Granados: Chamber Music with Piano (2016) [TR24][OF]

Posted By: SERTiL
Trio Rodin - Granados: Chamber Music with Piano (2016) [TR24][OF]

Trio Rodin - Granados: Chamber Music with Piano
Classical | FLAC (tracks) 24-bit/88.2 kHz | 72:03 min | 1.20 GB | Digital booklet
Label: Aevea | Tracks: 15 | Rls.date: 2016

Trio Rodin's debut recording presents a new version of the Granados piano trio Op. 50 based on the manuscript found at the "Museu de la Música de Barcelona" instead of the more commonly played Edition UMe. The CD also includes the world first recording of Granados Trova along with an arrangement by the composer himself of his most famous chamber orchestra piece Elisenda.

The sonata for violin and piano is another of the great surprises this CD has to offer. "We knew about the existence of the valued manuscripts of second, third and fourth movements of this well known 'one movement' sonata; but no one has dusted them off and shown them to an audience till now. A complete second movement and two other unfinished movements are presented here as a premiere of what it is without any doubt one of his greatest chamber music works." (Trio Rodin)

TRACKLIST
01. Piano Trio in C Major, Op. 50, H. 140 - I. Poco allegro con espressione (8:51)
02. Piano Trio in C Major, Op. 50, H. 140 - II. Scherzetto (5:14)
03. Piano Trio in C Major, Op. 50, H. 140 - III. Duetto (5:00)
04. Piano Trio in C Major, Op. 50, H. 140 - IV. Finale (6:46)
05. Madrigal (5:54)
06. Danza gallega (5:06)
07. Trova (6:40)
08. Romanza (5:39)
09. 3 Preludios for Violin & Piano, H. 135 - No. 1. La gondola (0:53)
10. 3 Preludios for Violin & Piano, H. 135 - No. 2. El toque de guerra (1:10)
11. 3 Preludios for Violin & Piano, H. 135 - No. 3. Elevacion (1:21)
12. Violin Sonata, H. 127 - I. Lentamenta e con molta fantasia (10:49)
13. Violin Sonata, H. 127 - II. Scherzo: Allegro (5:15)
14. Violin Sonata, H. 127 - III. Andante (2:23)
15. Violin Sonata, H. 127 - IV. Finale: Allegretto con un sentimento molto tranquilla e con semplicita (1:13)

foobar2000 1.3.7 / Замер динамического диапазона (DR) 1.1.1
Дата отчёта: 2017-02-07 18:20:31

––––––––––––––––––––––––––––––––––––––––
Анализ: Carles Puig, Performer - Jorge Mengotti, Performer - Enrique Granados, Composer / Trio Rodin : Granados: Chamber Music with Piano (1-8)
Esther García, Performer - Jorge Mengotti, Performer - Enrique Granados, Composer / Trio Rodin : Granados: Chamber Music with Piano (9-11)
Trio Rodin, Ensemble - Enrique Granados, Composer / Trio Rodin : Granados: Chamber Music with Piano (12-15)
––––––––––––––––––––––––––––––––––––––––

DR Пики RMS Продолжительность трека
––––––––––––––––––––––––––––––––––––––––
DR13 -7.67 дБ -26.66 дБ 5:39 8-Romanza
DR11 -11.94 дБ -31.80 дБ 0:53 9-3 Preludios for Violin & Piano, H. 135:3 Preludios for Violin & Piano, H. 135: No. 1. La gondola
DR13 -2.09 дБ -20.65 дБ 1:23 10-3 Preludios for Violin & Piano, H. 135:3 Preludios for Violin & Piano, H. 135: No. 2. El toque de guerra
DR11 -19.51 дБ -36.64 дБ 1:07 11-3 Preludios for Violin & Piano, H. 135:3 Preludios for Violin & Piano, H. 135: No. 3. Elevacion
DR14 -1.33 дБ -21.42 дБ 10:50 12-Violin Sonata, H. 127:Violin Sonata, H. 127: I. Lentamenta e con molta fantasia
DR13 -7.44 дБ -24.83 дБ 5:17 13-Violin Sonata, H. 127:Violin Sonata, H. 127: II. Scherzo: Allegro
DR12 -7.98 дБ -26.60 дБ 2:22 14-Violin Sonata, H. 127:Violin Sonata, H. 127: III. Andante
DR11 -9.63 дБ -24.92 дБ 1:08 15-Violin Sonata, H. 127:Violin Sonata, H. 127: IV. Finale: Allegretto con un sentimento molto tranquilla e con semplicita
DR14 -3.06 дБ -22.75 дБ 5:54 5-Madrigal
DR14 -6.37 дБ -25.42 дБ 5:05 6-Danza gallega
DR17 -2.67 дБ -26.81 дБ 6:40 7-Trova
DR15 -1.63 дБ -22.68 дБ 8:55 1-Piano Trio in C Major, Op. 50, H. 140:Piano Trio in C Major, Op. 50, H. 140: I. Poco allegro con espressione
DR14 -2.49 дБ -21.29 дБ 5:13 2-Piano Trio in C Major, Op. 50, H. 140:Piano Trio in C Major, Op. 50, H. 140: II. Scherzetto
DR15 -2.11 дБ -24.37 дБ 5:00 3-Piano Trio in C Major, Op. 50, H. 140:Piano Trio in C Major, Op. 50, H. 140: III. Duetto
DR15 0.00 дБ -19.47 дБ 6:47 4-Piano Trio in C Major, Op. 50, H. 140:Piano Trio in C Major, Op. 50, H. 140: IV. Finale
––––––––––––––––––––––––––––––––––––––––

Количество треков: 15
Реальные значения DR: DR14

Частота: 88200 Гц
Каналов: 2
Разрядность: 24
Битрейт: 2451 кбит/с
Кодек: FLAC
================================================================================


Thanks to the Original customer.