U2 - Songs Of Experience (Deluxe Edition) (2017) [Official Digital Download 24/96]

Posted By: Pisulik
U2 - Songs Of Experience (Deluxe Edition) (2017) [Official Digital Download 24/96]

U2 - Songs Of Experience (Deluxe Edition) (2017)
FLAC (tracks) 24-bit/96 kHz | Time - 68:38 minutes | 1,30 GB
Studio Master, Official Digital Download | Artwork: Digital Booklet

U2 is returning with a new studio album, „Songs of Experience“. U2, the biggest name in rock music, is back with their highly anticipated 14th studio album Songs of Experience. A collection of 13 songs in the form of intimate letters to places and people including family, friends and fans, featuring tracks "The Blackout" and first single "You’re The Best Thing About Me".

The album was started in earnest during rehearsals for 2015’s "Innocence and Experience" tour, as the band worked with Joylon Thomas as rehearsals commenced in Vancouver for that tour. Recording continued and the band worked with producers Jacknife Lee, Andy Barlow, and Steve Lillywhite to finish the album.

Tracklist:

01. Love Is All We Have Left
02. Lights Of Home
03. Youre The Best Thing About Me
04. Get Out Of Your Own Way
05. American Soul
06. Summer Of Love
07. Red Flag Day
08. The Showman (Little More Better)
09. The Little Things That Give You Away
10. Landlady
11. The Blackout
12. Love Is Bigger Than Anything In Its Way
13. 13 (There is A Light)
14. Ordinary Love (Extraordinary Mix)
15. Book Of Your Heart
16. Lights Of Home (St Peter's String Version)
17. Youre The Best Thing About Me (U2 Vs. Kygo)

Personnel:

Bono - lead vocals, rhythm guitar, harmonica
The Edge - lead guitar, keyboards, backing vocals
Adam Clayton - bass
Larry Mullen Jr. - drums, percussion

foobar2000 1.3.7 / Dynamic Range Meter 1.1.1
log date: 2017-12-02 02:39:08

––––––––––––––––––––––––––––––––––––––––
Analyzed: U2 / Songs Of Experience (Deluxe Edition)
––––––––––––––––––––––––––––––––––––––––

DR Peak RMS Duration Track
––––––––––––––––––––––––––––––––––––––––
DR9 -3.06 dB -13.44 dB 2:41 01-Love Is All We Have Left
DR7 0.00 dB -10.04 dB 4:17 02-Lights Of Home
DR8 0.00 dB -9.56 dB 3:45 03-Youre The Best Thing About Me
DR8 0.00 dB -10.75 dB 3:58 04-Get Out Of Your Own Way
DR7 0.00 dB -8.98 dB 4:22 05-American Soul
DR8 0.00 dB -10.65 dB 3:24 06-Summer Of Love
DR8 0.00 dB -10.05 dB 3:20 07-Red Flag Day
DR8 0.00 dB -10.21 dB 3:24 08-The Showman (Little More Better)
DR9 0.00 dB -12.66 dB 4:55 09-The Little Things That Give You Away
DR9 0.00 dB -11.81 dB 4:01 10-Landlady
DR7 0.00 dB -8.98 dB 4:46 11-The Blackout
DR7 0.00 dB -9.84 dB 4:01 12-Love Is Bigger Than Anything In Its Way
DR10 0.00 dB -13.03 dB 4:20 13-13 (There is A Light)
DR9 0.00 dB -11.29 dB 3:47 14-Ordinary Love (Extraordinary Mix)
DR9 0.00 dB -10.50 dB 3:55 15-Book Of Your Heart
DR7 -0.04 dB -10.05 dB 4:33 16-Lights Of Home (St Peter's String Version)
DR8 0.00 dB -9.60 dB 4:16 17-Youre The Best Thing About Me (U2 Vs Kygo)
––––––––––––––––––––––––––––––––––––––––

Number of tracks: 17
Official DR value: DR8

Samplerate: 96000 Hz
Channels: 2
Bits per sample: 24
Bitrate: 2873 kbps
Codec: FLAC
================================================================================


All thanks go to the original releaser