Tags
Language
Tags

Uladzimir Sinkevich, Munich Radio Orchestra & Ivan Repušić - Pēteris Vasks: Orchestral Works (2021) [24/48]

Posted By: SERTiL
Uladzimir Sinkevich, Munich Radio Orchestra & Ivan Repušić - Pēteris Vasks: Orchestral Works (2021) [24/48]

Uladzimir Sinkevich, Munich Radio Orchestra & Ivan Repušić - Pēteris Vasks: Orchestral Works (2021)
FLAC (tracks) 24-bit/48 kHz | Time - 76:28 minutes | 823 MB
Studio Master, Official Digital Download | Artwork: Digital booklet

All the works of the Latvian composer Pēteris Vasks on this CD are written for string orchestra: the three connected compositions 'Musica serena' (2015, dedicated to the Finnish conductor Juhga Kangas), 'Musica dolorosa' (1983) and 'Musica appassionata' (2002), and also Vasks' Concerto No 2 for Violoncello and Strings, also known as 'Klātbūtne' ('Presence', 2011/12). Vasks' three instrumental pieces here are light-hearted, tragic (dealing with the death of his sister as well as the political situation in Latvia at the time), and passionate, providing an overview of the diversity of his work across a timespan of almost three decades. His deeply spiritual Cello Concerto, which was premiered by Sol Gabetta and the Amsterdam Sinfonietta and conducted by Candida Thompson in Ghent, refers in its title to the pure being of his music - which is present, without distance, in every movement of the bow. Today, alongside Arvo Pärt and Erkki Sven-Tüür, Pēteris Vasks is one of the most famous composers from the Baltic states of the former Soviet Union. – On April 16, 2021, the music world will celebrate his 75th birthday.

Tracklist:
01. Musica serena (10:04)
03. Musica dolorosa (12:50)
05. Musica appassionata (18:26)
07. Cello Concerto No. 2 "Klātbūtne": Cadenza I. Adagio (4:15)
09. Cello Concerto No. 2 "Klātbūtne": I. Andante cantabile (5:18)
11. Cello Concerto No. 2 "Klātbūtne": II. Allegro marcato (5:44)
13. Cello Concerto No. 2 "Klātbūtne": Cadenza II. Andante (7:58)
15. Cello Concerto No. 2 "Klātbūtne": III. Adagio (12:17)

foobar2000 1.6 / Dynamic Range Meter 1.1.1
log date: 2021-03-30 17:18:06

––––––––––––––––––––––––––––––––––––––––
Analyzed: Uladzimir Sinkevich, Munich Radio Orchestra & Ivan Repušić / Pēteris Vasks: Orchestral Works
––––––––––––––––––––––––––––––––––––––––

DR Peak RMS Duration Track
––––––––––––––––––––––––––––––––––––––––
DR12 -0.77 dB -19.92 dB 10:04 01-Vasks: Musica serena
DR11 -0.50 dB -16.41 dB 12:50 03-Vasks: Musica dolorosa
DR11 -0.50 dB -16.04 dB 18:26 05-Vasks: Musica appassionata
DR13 -3.43 dB -23.20 dB 4:15 07-Vasks: Cello Concerto No. 2 "Klātbūtne": Cadenza I. Adagio
DR13 -0.52 dB -21.23 dB 5:18 09-Vasks: Cello Concerto No. 2 "Klātbūtne": I. Andante cantabile
DR12 -0.51 dB -16.35 dB 5:44 11-Vasks: Cello Concerto No. 2 "Klātbūtne": II. Allegro marcato
DR13 -0.50 dB -17.87 dB 7:58 13-Vasks: Cello Concerto No. 2 "Klātbūtne": Cadenza II. Andante
DR14 -0.52 dB -20.83 dB 12:17 15-Vasks: Cello Concerto No. 2 "Klātbūtne": III. Adagio
––––––––––––––––––––––––––––––––––––––––

Number of tracks: 8
Official DR value: DR12

Samplerate: 48000 Hz
Channels: 2
Bits per sample: 24
Bitrate: 1447 kbps
Codec: FLAC
================================================================================


Thanks to the Original customer.