Brian Simpson & Steve Oliver - Unified (2020) [Official Digital Download]

Posted By: SERTiL
Brian Simpson & Steve Oliver - Unified (2020) [Official Digital Download]

Brian Simpson & Steve Oliver - Unified (2020)
FLAC (tracks) 24-bit/48 kHz | Time - 42:21 minutes | 466 MB
Studio Master, Official Digital Download | Artwork: Digital Booklet

The historic meeting of two Smooth jazz icons! Between them, they have scored more than 25 Top Ten Smooth Jazz radio hits, more than 15 Top Ten Billboard Contemporary Jazz albums, toured to packed houses worldwide and shared the stage with everyone from Larry Carlton and George Duke to The Neville Brothers!

Brian and Steve are famous for their melodic richness, captivating grooves and delicate touch and 'Unified' is the perfect expression of those qualities. Highlights include the romantic, dreamy "Last Summer," the super-sophisticated "Café du Monde," the grooving title tune "Unified" and much more.

"Simpson is in the forefront of Smooth Jazz keyboard icons." - Allmusic

"As soon as Steve Oliver strums that guitar, you know you are about to hear some great tracks." - TheJazzWorld

Tracklist:
01. Unified (3:59)
02. The Road Never Ends (4:48)
03. What The Wind Knows (3:35)
04. Fired Up (4:23)
05. Last Summer (3:41)
06. Like No Other (4:01)
07. The Way Home (3:45)
08. Celestial Body (3:30)
09. Café Du Monde (4:33)
10. A Distant Love (4:03)
11. And Then You Loved Me (2:07)

foobar2000 1.3.7 / Dynamic Range Meter 1.1.1
log date: 2020-01-14 20:53:28

––––––––––––––––––––––––––––––––––––––––
Analyzed: Brian Simpson & Steve Oliver / Unified
––––––––––––––––––––––––––––––––––––––––

DR Peak RMS Duration Track
––––––––––––––––––––––––––––––––––––––––
DR7 -0.70 dB -9.45 dB 3:59 01-Unified
DR7 -0.70 dB -9.26 dB 4:48 02-The Road Never Ends
DR7 -0.70 dB -8.76 dB 3:35 03-What The Wind Knows
DR8 -0.70 dB -10.09 dB 4:23 04-Fired Up
DR8 -0.70 dB -9.94 dB 3:41 05-Last Summer
DR8 -0.70 dB -9.63 dB 4:01 06-Like No Other
DR7 -0.70 dB -9.11 dB 3:45 07-The Way Home
DR8 -0.70 dB -9.49 dB 3:30 08-Celestial Body
DR8 -0.70 dB -9.65 dB 4:33 09-Café Du Monde
DR7 -0.70 dB -9.51 dB 4:03 10-A Distant Love
DR10 -0.70 dB -13.04 dB 2:07 11-And Then You Loved Me
––––––––––––––––––––––––––––––––––––––––

Number of tracks: 11
Official DR value: DR8

Samplerate: 44100 Hz
Channels: 2
Bits per sample: 24
Bitrate: 1177 kbps
Codec: FLAC
================================================================================


Thanks to the Original customer.