VOS - Charlatan (2020) [Official Digital Download]

Posted By: pyatak
VOS - Charlatan (2020) [Official Digital Download]

VOS - Charlatan (2020) [Official Digital Download]
FLAC (tracks) 24-bit/44.1 kHz | Front Cover | Time - 43:31 minutes | 439 MB
Jazz | Label: col legno, Official Digital Download

Fascinated by the term CHARLATAN and its rich world of images and thoughts, the trio VOS presents its debut album of the same name. Texts, moods, visual impressions, terms and associations form the basis of Boris Valentinitsch’s compositions. The interweaving of diverse musical influences within the formation offers space for developments, deconstructions and breaks in terms of arrangement and improvisation. From one moment to another, a flowing musical body emerges, in which attention can be drawn to this or that movement, but the elements are nevertheless connected, mutually dependent and form a whole, only to dissolve again.

“Without knocking first, Charlatan steps into the room, which is only dimly lit. On flinches when he sees this stranger step into the room." (from: Manès Sperber, ‘Charlatan und seine Zeit’, Vienna 1924)

TRACKLIST

01. VOS - Veldt
02. VOS - Larry Morse
03. VOS - Style and Subject Matter
04. VOS - November
05. VOS - Squirrel
06. VOS - Charlatan
07. VOS - Angel Eyes

foobar2000 1.6.2 / Dynamic Range Meter 1.1.1
log date: 2020-12-02 22:00:51

––––––––––––––––––––––––––––––––––––––––
Analyzed: VOS / Charlatan
––––––––––––––––––––––––––––––––––––––––

DR Peak RMS Duration Track
––––––––––––––––––––––––––––––––––––––––
DR11 -0.30 dB -15.97 dB 5:26 01-Veldt
DR9 -0.30 dB -13.12 dB 7:49 02-Larry Morse
DR10 -0.30 dB -13.07 dB 5:52 03-Style and Subject Matter
DR9 -0.30 dB -11.10 dB 4:11 04-November
DR10 -0.30 dB -13.01 dB 5:37 05-Squirrel
DR9 -0.30 dB -13.32 dB 7:13 06-Charlatan
DR12 -0.30 dB -16.15 dB 7:24 07-Angel Eyes
––––––––––––––––––––––––––––––––––––––––

Number of tracks: 7
Official DR value: DR10

Samplerate: 44100 Hz
Channels: 2
Bits per sample: 24
Bitrate: 1250 kbps
Codec: FLAC
================================================================================



Thanks to the Original customer.