Tags
Language
Tags
January 2023
Su Mo Tu We Th Fr Sa
1 2 3 4 5 6 7
8 9 10 11 12 13 14
15 16 17 18 19 20 21
22 23 24 25 26 27 28
29 30 31 1 2 3 4

V.A. - SACD The Ultimate Audio Experience: The Classical Sampler (2003) [SACD] PS3 ISO

Posted By: Discograf_man
V.A. - SACD The Ultimate Audio Experience: The Classical Sampler (2003) [SACD] PS3 ISO

V.A. - SACD The Ultimate Audio Experience: The Classical Sampler (2003) [SACD] PS3 ISO
Classical | SACD ISO: DST64 2.0, 5.1 > 1-bit/2.8224 MHz
Run Time: 01:10:00 | 4.53 GB + 5% Recovery
Label: Deutsche Grammophon | Release Year: 2003

The subtitle of this SACD is "The Ultimate Audio Experience". But open the notes, and you discover that all the tracks save one are from 44, 48, and 96KHz PCM sample original sources. There are some great performances here –- forever trapped in mid-definition resolution. They date from 1993 to 2003, a surprising number of them being recorded in 2001-2003, after DSD recording was available. In listening to this SACD, I was beginning to have doubts about the SACD format until I noticed the sources in the liner notes.
The one DSD recording here is the Dvorak Slavonic Dance op. 71 #1 with Ivan Fischer and the Budapest Festival Orchestra Dvorák: The Slavonic Dances [SACD]. My reference is Reiner's performance Dvorak: Slavonic Dances & Brahms: Hungarian Dances / Fritz Reiner Conducting The Vienna Philharmonic Orchestra, and I would have to say that I prefer Fischer's performance, which has tremendous nuance and exuberance.
Tracklist:

Gustav Mahler (1860 - 1911):
1. Symphony No. 3 in D Minor, Pt. 1 - Kräftig. Entschieden - excerpt 5:30
Wiener Philharmoniker, Pierre Boulez
Antonín Dvorák (1841 - 1904):
2. 8 Slavonic Dances, Op. 72, B. 147 - No.1 in B (Molto vivace) 4:13
Budapest Festival Orchestra, Iván Fischer
3. Rusalka, Op.114, B. 203, Act 1 - Mesicku na nebi hlubokém 5:02
Anna Netrebko, Wiener Philharmoniker, Gianandrea Noseda
Ludwig van Beethoven (1770 - 1827):
4. Violin Romance No.2 in F major, Op.50 8:20
Anne-Sophie Mutter, New York Philharmonic Orchestra, Kurt Masur
Francesco Gasparini (1661 - 1727):
5. Ecco che alfin ritorno, Critical Edition: Dr. Alessandro Borin - Il nocchier nella procella 3:19
Andreas Scholl, Accademia Bizantina, Ottavio Dantone
Giacomo Puccini (1858 - 1924):
6. La Bohème, Edited Francesco Degrada (1988), Act 1 - "O soave fanciulla" 4:03
Roberto Alagna, Angela Gheorghiu, Simon Keenlyside, Orchestra del Teatro alla Scala di Milano, Riccardo Chailly
Vincenzo Bellini (1801 - 1835):
7. La Sonnambula, Act 2 - Ah, non credea mirarti 6:37
Renée Fleming, Coro del Maggio Musicale Fiorentino, Orchestra Of St Luke's, Patrick Summers
Heinrich Ignaz Franz von Biber (1644 - 1704):
8. Missa Salisburgensis - Kyrie 5:50
Musica Antiqua Köln, Reinhard Goebel, Gabrieli Consort, Paul McCreesh, Gabrieli Players
Modest Petrovich Mussorgsky (1839 - 1881):
9. Pictures at an Exhibition (Orch. Ravel) - Promenade I - 1. Gnomus 3:56
Wiener Philharmoniker, Valery Gergiev
Gustav Mahler (1860 - 1911):
10. Symphony No. 2 in C Minor "Resurrection", Tracking of Symphony by Gilbert Kaplan - 5th Movement - Sehr langsam und gedehnt ("der grosse Appell") & Pesante 4:48
Gilbert Kaplan, Wiener Philharmoniker
Frédéric Chopin (1810 - 1849):
11. Waltz No.8 in A flat, Op.64 No.3 2:31
Vladimir Ashkenazy
Gaetano Donizetti (1797 - 1848):
12. Don Pasquale, Act 3 - Com'è gentil…tornami a dir 3:47
Juan Diego Flórez, Andrea Menafra, Rossella Perrone, Giulio Patara, Coro Sinfonico di Milano Giuseppe Verdi, Orchestra Sinfonica di Milano Giuseppe Verdi, Riccardo Frizza
Richard Wagner (1813 - 1883):
13. Tannhäuser, WWV 70, Act 3 - Wie Todesahnung… O du mein holder Abendstern (Wolfram) 5:34
Bryn Terfel, Berliner Philharmoniker, Claudio Abbado
Olivier Messiaen (1908 - 1992):
14. Turangalîla Symphonie - 5. Joie de sang des étoiles 6:20
Jean-Yves Thibaudet, Takashi Harada, Royal Concertgebouw Orchestra, Riccardo Chailly

foobar2000 1.3.13 / Замер динамического диапазона (DR) 1.1.1
Дата отчёта: 2019-09-19 17:06:03

––––––––––––––––––––––––––––––––––––––––
Анализ: Various / SACD Sampler
––––––––––––––––––––––––––––––––––––––––

DR Пики RMS Продолжительность трека
––––––––––––––––––––––––––––––––––––––––
DR16 -5.03 дБ -32.27 дБ 5:31 01-Symphony No.3: 1. Krдftig. Entschieden (excerpt)
DR14 -5.01 дБ -28.20 дБ 4:15 02-Slavonic Dance No. 1
DR15 -6.60 дБ -32.90 дБ 5:01 03-Song to the Moon
DR14 -7.75 дБ -33.10 дБ 8:21 04-Violin Romance No. 2
DR15 -10.88 дБ -36.39 дБ 3:19 05-Il nocchier
DR14 -10.37 дБ -35.97 дБ 4:04 06-O soave fanciulla
DR16 -9.99 дБ -35.48 дБ 6:37 07-Ah, non credea mirarti
DR14 -7.67 дБ -30.02 дБ 5:50 08-Missa Salisburgensis: Kyrie
DR16 -6.45 дБ -32.63 дБ 3:57 09-Pictures at an Exhibition: Promenade - Gnomus
DR11 -8.37 дБ -23.79 дБ 4:49 10-Symphony No. 2: "GroЯer Appell" - Pesante
DR12 -13.55 дБ -33.89 дБ 2:31 11-Waltz op. 64 No. 3
DR12 -9.05 дБ -30.95 дБ 3:48 12-Com'и gentil
DR15 -13.49 дБ -39.70 дБ 5:35 13-Wie Todesahnung… O du mein holder Abendstern
DR15 -6.68 дБ -28.49 дБ 6:21 14-Turangalila-Symphonie: Joie du sang des йtoiles
––––––––––––––––––––––––––––––––––––––––

Количество треков: 14
Реальные значения DR: DR14

Частота: 2822400 Гц / Частота PCM: 88200 Гц
Каналов: 6
Разрядность: 24
Битрейт: 16934 кбит/с
Кодек: DST64
================================================================================

––––––––––––––––––––––––––––––––––––––––
Анализ: Various / SACD Sampler
––––––––––––––––––––––––––––––––––––––––

DR Пики RMS Продолжительность трека
––––––––––––––––––––––––––––––––––––––––
DR16 -6.07 дБ -29.00 дБ 5:31 01-Symphony No.3: 1. Krдftig. Entschieden (excerpt)
DR14 -4.67 дБ -25.00 дБ 4:15 02-Slavonic Dance No. 1
DR14 -6.91 дБ -27.06 дБ 5:01 03-Song to the Moon
DR13 -10.33 дБ -29.68 дБ 8:21 04-Violin Romance No. 2
DR17 -7.62 дБ -29.00 дБ 3:19 05-Il nocchier
DR16 -7.39 дБ -29.79 дБ 4:04 06-O soave fanciulla
DR16 -10.33 дБ -32.94 дБ 6:37 07-Ah, non credea mirarti
DR12 -7.48 дБ -25.07 дБ 5:50 08-Missa Salisburgensis: Kyrie
DR17 -5.72 дБ -29.33 дБ 3:57 09-Pictures at an Exhibition: Promenade - Gnomus
DR9 -8.37 дБ -22.57 дБ 4:49 10-Symphony No. 2: "GroЯer Appell" - Pesante
DR12 -10.57 дБ -26.44 дБ 2:31 11-Waltz op. 64 No. 3
DR13 -8.68 дБ -27.35 дБ 3:48 12-Com'и gentil
DR14 -16.08 дБ -36.54 дБ 5:35 13-Wie Todesahnung… O du mein holder Abendstern
DR13 -8.10 дБ -24.54 дБ 6:21 14-Turangalila-Symphonie: Joie du sang des йtoiles
––––––––––––––––––––––––––––––––––––––––

Количество треков: 14
Реальные значения DR: DR14

Частота: 2822400 Гц / Частота PCM: 88200 Гц
Каналов: 2
Разрядность: 24
Битрейт: 5645 кбит/с
Кодек: DST64
================================================================================

Thanks to the original releaser!