Subcategories

Waylon Jennings - Leavin' Town (1966/2016) [TR24][OF]

Posted By: SERTiL
Waylon Jennings - Leavin' Town (1966/2016) [TR24][OF]

Waylon Jennings - Leavin' Town
Country | FLAC (tracks) 24-bit/96 kHz | 28:27 min | 608 MB | Front Cover
Label: RCA Victor | Tracks: 12 | Rls.date: 1966/2016

Much like his debut album (also released in 1966), Leavin' Town features a more tempered vocal approach from Jennings and the countrypolitan production that was typical at RCA at the time. In his 2013 book Outlaws: Waylon, Willie, Kris, and the Renegades of Nashville, author Michael Striessguth notes, "One of the early hit singles, 'Anita, You're Dreaming,' co-written by Waylon and [Don] Bowman, found Waylon in a serious and cautious vocal mode that remembered Jim Reeves, only this time with a trace of Marty Robbins, whose famous Latin sound rose up on Waylon's albums more than a few times in the 1960s." In the authorized Jennings video biography Renegade Outlaw Legend, producer Chet Atkins recalled, "I was just trying to make a record that would sell that the disc jockeys would play. I never thought, 'Let's make a pop record' or "Let's make a folk record.' I didn't think too much in that direction."

The LP contains three songs composed by Jennings as well as contributions from Bobby Bare, Mel Tillis, Harlan Howard, and Gordon Lightfoot. The LP's most successful single would be the Lightfoot composition "(That's What You Get) For Lovin' Me," which rose to #9. Stephen Thomas Erlewine of AllMusic writes that Leavin' Town showcases Jennings "developing a distinctive blend of country and folk."

TRACKLIST
01. Leavin' Town 02:07
02. Time to Bum Again 02:04
03. If You Really Want Me to I'll Go 02:02
04. Baby, Don't Be Looking in My Mind 02:54
05. But That's Alright 02:06
06. Time Will Tell the Story 02:03
07. You're Gonna Wonder About Me 02:27
08. (That's What You Get) For Lovin' Me 02:28
09. Anita, You're Dreaming 02:28
10. Doesn't Anybody Know My Name 02:57
11. Falling for You 02:37
12. I Wonder Just Where I Went Wrong 02:19

foobar2000 1.3.7 / Замер динамического диапазона (DR) 1.1.1
Дата отчёта: 2017-01-18 16:24:21

––––––––––––––––––––––––––––––––––––––––
Анализ: Waylon Jennings / Leavin' Town
––––––––––––––––––––––––––––––––––––––––

DR Пики RMS Продолжительность трека
––––––––––––––––––––––––––––––––––––––––
DR11 -2.58 дБ -16.54 дБ 2:07 01-Leavin' Town
DR12 -0.25 дБ -14.48 дБ 2:04 02-Time to Bum Again
DR11 -0.46 дБ -14.01 дБ 2:02 03-If You Really Want Me to I'll Go
DR12 -0.14 дБ -15.22 дБ 2:54 04-Baby, Don't Be Looking in My Mind
DR12 -1.68 дБ -17.41 дБ 2:06 05-But That's Alright
DR11 -1.03 дБ -14.73 дБ 2:03 06-Time Will Tell the Story
DR11 -1.06 дБ -15.08 дБ 2:27 07-You're Gonna Wonder About Me
DR11 0.00 дБ -13.73 дБ 2:28 08-(That's What You Get) For Lovin' Me
DR11 -2.03 дБ -15.82 дБ 2:28 09-Anita, You're Dreaming
DR12 -1.70 дБ -16.43 дБ 2:57 10-Doesn't Anybody Know My Name
DR12 -0.06 дБ -16.49 дБ 2:37 11-Falling for You
DR13 -0.50 дБ -14.94 дБ 2:19 12-I Wonder Just Where I Went Wrong
––––––––––––––––––––––––––––––––––––––––

Количество треков: 12
Реальные значения DR: DR12

Частота: 96000 Гц
Каналов: 2
Разрядность: 24
Битрейт: 3011 кбит/с
Кодек: FLAC
================================================================================


Thanks to the Original customer.