William Vann - Parry: Judith (2020) [Official Digital Download 24/96]

Posted By: SERTiL
William Vann - Parry: Judith (2020) [Official Digital Download 24/96]

Sarah Fox, Kathryn Rudge, Toby Spence, Henry Waddington, London Mozart Players & William Vann - Parry: Judith (2020)
FLAC (tracks) 24-bit/96 kHz | Time - 130:53 minutes | 2.24 GB
Studio Master, Official Digital Download | Artwork: Digital Booklet

Recorded after the first London performance for over 130 years, Parry’s neglected oratorio here appears for the very first time. Having been commissioned by the Birmingham Festival, Parry decided to combine the Old Testament stories of Manasseh and Judith. A good deal of the libretto was provided by Parry himself, who took other texts from the biblical books of Isaiah, Psalms, and Judith. Having originally conceived the work in four acts, Parry condensed it into two. Judith was premiered by Richter in Birmingham in August 1888, and it consolidated Parry’s reputation as a choral composer, numerous performances following in Edinburgh and in London. Although popular in his lifetime, Judith fell into obscurity after Parry’s death.

Tracklist:

CD1
01. Judith: Allegro spiritoso
02. Judith, Act I Scene 1: Hail Moloch! Hail, Awful God!
03. Judith, Act I Scene 1: Draw Near and Worship, O My People!
04. Judith, Act I Scene 1: Have Mercy, Dread Moloch
05. Judith, Act I Scene 1: Hear Ye, The Word of Your God!
06. Judith, Act I Scene 1: Hail, Thou Art Highly Favoured, King!
07. Judith, Act I Scene 1: Bring Now the Children!
08. Judith, Act I Scene 1: Hearken, O King
09. Judith, Act I Scene 1: Hail, Moloch, Hail!
10. Judith, Act I Scene 2: O Mother, Tell Us Once Again
11. Judith, Act I Scene 2: Long Since in Egypt's Plenteous Land
12. Judith, Act I Scene 2: Great Queen! The King Calls for His Children
13. Judith, Act I Scene 2: Lady! Thou Queen of Israel!
14. Judith, Act I Scene 3: Moloch, Give Ear!
15. Judith, Act I Scene 3: Stay Your Hideous Mockeries!
16. Judith, Act I Scene 3: Now Shall the Lord Jehovah Visit You
17. Judith, Act I Scene 3: Who Is This That Raileth at Moloch?
18. Judith, Act I Scene 3: O King, Give Ear!
19. Judith, Act I Scene 3: Fear Not, My People
20. Judith, Act I Scene 3: The Host of Assur Is Like a Swarm of Locusts
21. by London Mozart Players and Sarah Fox
22. Judith, Act I Scene 3: Moloch! Moloch! Hear Us Now
23. Judith, Act I Scene 3: Fly! Fly! The Host of Assur Is Come on Us
24. Judith, Act I Scene 3: Jerusalem, That Was Queen of the Nations

CD2
01. Judith: I Will Bear the Indignation of God
02. Judith, Act II Scene 1: Wail, Wail, Ye Solitary People!
03. Judith, Act II Scene 1: The Lord Is Long-Suffering and Merciful
04. Judith, Act II Scene 1: Our King Is Come Again from Distant Lands
05. Judith, Act II Scene 1: Behold, How Great Is the Mercy of Our God
06. Judith, Act II Scene 2: Hear Ye the Words of the Captain of the Great King
07. Judith, Act II Scene 2: Woe! Our Citys Walls Are Broken
08. Judith, Act II Scene 2: Let Us Give Thanks unto the Lord Our God
09. Judith, Act II Scene 2: I Pray Thee, O God of My Fathers
10. Judith, Act II Scene 2: The God of Our Fathers Give Thee Favour
11. Judith, Act II Scene 3: See Ye the Campfires of the Host of Assur
12. Judith, Act II Scene 3: Ho! Ye upon the Walls
13. Judith, Act II Scene 3: Arise, O Israel! Smite Ye Your Enemies
14. Judith, Act II Scene 3: God Breaketh the Battle
15. Judith, Act II Scene 3: I Will Sing unto the Lord
16. Judith, Act II Scene 3: Put Off, O Jerusalem, the Garment of Thy Mourning

foobar2000 1.3.7 / Dynamic Range Meter 1.1.1
log date: 2020-02-26 11:39:00

––––––––––––––––––––––––––––––––––––––––
Analyzed: Sarah Fox, Kathryn Rudge, Toby Spence, Henry Waddington, London Mozart Players & William Vann / Parry: Judith
––––––––––––––––––––––––––––––––––––––––

DR Peak RMS Duration Track
––––––––––––––––––––––––––––––––––––––––
DR14 -4.26 dB -26.79 dB 5:11 01-Allegro spiritoso
DR13 -1.32 dB -19.71 dB 3:14 02-Scene 1: Hail Moloch! Hail, Awful God!
DR15 -8.97 dB -28.46 dB 1:32 03-Scene 1: Draw Near and Worship, O My People!
DR7 -1.03 dB -21.10 dB 0:42 04-Scene 1: Have Mercy, Dread Moloch
DR11 -14.50 dB -28.92 dB 0:53 05-Scene 1: Hear Ye, The Word of Your God!
DR13 -4.04 dB -21.94 dB 2:14 06-Scene 1: Hail, Thou Art Highly Favoured, King!
DR14 -1.29 dB -19.74 dB 2:27 07-Scene 1: Bring Now the Children!
DR10 -10.39 dB -27.73 dB 1:07 08-Scene 1: Hearken, O King
DR12 -0.74 dB -16.97 dB 1:32 09-Scene 1: Hail, Moloch, Hail!
DR15 -10.71 dB -32.06 dB 5:31 10-Scene 2: O Mother, Tell Us Once Again
DR14 -10.54 dB -33.76 dB 4:37 11-Scene 2: Long Since in Egypt's Plenteous Land
DR13 -2.76 dB -23.02 dB 5:23 12-Scene 2: Great Queen! The King Calls for His Children
DR14 -7.84 dB -29.57 dB 5:12 13-Scene 2: Lady! Thou Queen of Israel!
DR14 -0.98 dB -22.40 dB 5:26 14-Scene 3: Moloch, Give Ear!
DR16 -4.60 dB -26.73 dB 1:35 15-Scene 3: Stay Your Hideous Mockeries!
DR14 -4.89 dB -23.28 dB 2:13 16-Scene 3: Now Shall the Lord Jehovah Visit You
DR12 -2.24 dB -17.96 dB 1:11 17-Scene 3: Who Is This That Raileth at Moloch?
DR15 -7.69 dB -27.84 dB 0:40 18-Scene 3: O King, Give Ear!
DR10 -8.99 dB -27.77 dB 0:33 19-Scene 3: Fear Not, My People
DR12 -4.01 dB -24.19 dB 1:19 20-Scene 3: The Host of Assur Is Like a Swarm of Locusts
DR7 -2.75 dB -23.76 dB 0:27 21-Scene 3: Jerusalem Was Loved of the Lord
DR15 -5.39 dB -25.87 dB 3:25 22-Scene 3: Moloch! Moloch! Hear Us Now
DR12 -2.63 dB -20.96 dB 3:25 23-Scene 3: Fly! Fly! The Host of Assur Is Come on Us
DR13 -7.16 dB -27.65 dB 1:49 24-Scene 3: Jerusalem, That Was Queen of the Nations
DR14 -12.92 dB -31.93 dB 5:23 25-I Will Bear the Indignation of God
DR14 -5.48 dB -25.96 dB 5:51 26-Scene 1: Wail, Wail, Ye Solitary People!
DR13 -9.99 dB -28.88 dB 3:51 27-Scene 1: The Lord Is Long-Suffering and Merciful
DR13 -0.73 dB -19.15 dB 2:47 28-Scene 1: Our King Is Come Again from Distant Lands
DR14 -5.41 dB -26.86 dB 6:19 29-Scene 1: Behold, How Great Is the Mercy of Our God
DR16 -3.23 dB -26.42 dB 3:46 30-Scene 2: Hear Ye the Words of the Captain of the Great King
DR13 -4.59 dB -24.89 dB 3:06 31-Scene 2: Woe! Our Citys Walls Are Broken
DR14 -5.22 dB -26.70 dB 2:28 32-Scene 2: Let Us Give Thanks unto the Lord Our God
DR15 -3.02 dB -24.55 dB 3:13 33-Scene 2: I Pray Thee, O God of My Fathers
DR12 -0.89 dB -18.39 dB 4:05 34-Scene 2: The God of Our Fathers Give Thee Favour
DR18 -0.79 dB -26.48 dB 8:28 35-Scene 3: See Ye the Campfires of the Host of Assur
DR15 -3.46 dB -24.46 dB 2:44 36-Scene 3: Ho! Ye upon the Walls
DR13 -0.86 dB -17.75 dB 3:44 37-Scene 3: Arise, O Israel! Smite Ye Your Enemies
DR15 -7.37 dB -27.70 dB 4:06 38-Scene 3: God Breaketh the Battle
DR15 -1.43 dB -21.88 dB 4:40 39-Scene 3: I Will Sing unto the Lord
DR13 -0.82 dB -18.30 dB 5:01 40-Scene 3: Put Off, O Jerusalem, the Garment of Thy Mourning
––––––––––––––––––––––––––––––––––––––––

Number of tracks: 40
Official DR value: DR13

Samplerate: 96000 Hz
Channels: 2
Bits per sample: 24
Bitrate: 2589 kbps
Codec: FLAC
================================================================================


Thanks to the Original customer.