Tags
Language
Tags

Wolves In The Throne Room - Primordial Arcana (2021)

Posted By: v3122
Wolves In The Throne Room - Primordial Arcana (2021)

Petru Iuga & Oliver Triendl - Schubert, Weinberg & Others: Double Bass Works (2021)
FLAC (Tracks) 24-bit/96 kHz | Time: 01:12:28 | 1.30 Gb
Classical | Solo Musica | Official Digital Download | Artwork: Digital Booklet

3rd wave of black metal darlings and trustees of American Pacific Northwestern Shamanism WITTR unleash yet another solid, measured slab of densely atmospheric ponderings of the archaic from their forest realm…

~ sonicperspectives.com
Wolves In The Throne Room - Primordial Arcana (2021):

Tracklist:

01. Mountain Magick (5:56)
02. Spirit of Lightning (6:24)
03. Through Eternal Fields (5:54)
04. Primal Chasm (Gift of Fire) (5:02)
05. Underworld Aurora (7:30)
06. Masters of Rain and Storm (10:44)
07. Eostre (3:05)
08. Skyclad Passage (Bonus Track) (5:05)

foobar2000 1.6.5 / Dynamic Range Meter 1.1.1

––––––––––––––––––––––––––––––––––––––––
Analyzed: Wolves In The Throne Room / Primordial Arcana
––––––––––––––––––––––––––––––––––––––––

DR Peak RMS Duration Track
––––––––––––––––––––––––––––––––––––––––
DR5 -0.30 dB -6.75 dB 5:56 01-Mountain Magick
DR6 -0.30 dB -8.33 dB 6:24 02-Spirit of Lightning
DR6 -0.30 dB -8.36 dB 5:54 03-Through Eternal Fields
DR6 -0.30 dB -8.02 dB 5:02 04-Primal Chasm (Gift of Fire)
DR5 -0.27 dB -7.88 dB 7:30 05-Underworld Aurora
DR5 0.00 dB -7.52 dB 10:44 06-Masters of Rain and Storm
DR9 -0.50 dB -13.32 dB 3:05 07-Eostre
DR7 -0.30 dB -11.59 dB 5:05 08-Skyclad Passage (Bonus Track)
––––––––––––––––––––––––––––––––––––––––

Number of tracks: 8
Official DR value: DR6

Samplerate: 96000 Hz
Channels: 2
Bits per sample: 24
Bitrate: 2806 kbps
Codec: FLAC

All thanks go to the original releaser

Download Wolves In The Throne Room - Primordial Arcana (2021):