Yury Martynov - Beethoven & Liszt: Symphony No.9 (2015) [TR24][OF]

Posted By: SERTiL
Yury Martynov - Beethoven & Liszt: Symphony No.9 (2015) [TR24][OF]

Yury Martynov - Beethoven & Liszt: Symphony No.9
Classical | FLAC (tracks) 24-bit/48 kHz | 70:49 min | 607 MB | Digital booklet
Label: Alpha | Tracks: 04 | Rls.date: 2015

After four previous discs devoted to Franz Liszt’s transcriptions of the Beethoven symphonies, the pianist Yury Martynov completes the cycle with the transcription of the Ninth Symphony. The reduction of this complex work for a single piano and two hands – he had already adapted it for two pianos – constituted a genuine challenge for Liszt, who was obliged to omit certain inner parts. Yet he succeeded in reproducing the symphony’s prodigious character and revealing its incredible power. The piano combines the orchestra, the soloists and the chorus, unifying these disparate voices in a single instrument. The work’s energy and its textures are displayed to the full in Yury Martynov’s performance on a Blüthner piano dating from 1867 and belonging to the Edwin Beunk collection.

TRACKLIST
1.Symphony No. 9 in D Minor, Op. 125: I. Allegro ma non troppo, un poco maestoso 14:55
2.Symphony No. 9 in D Minor, Op. 125: II. Molto vivace 14:29
3.Symphony No. 9 in D Minor, Op. 125: III. Adagio molto e cantabile 16:00
4.Symphony No. 9 in D Minor, Op. 125: IV. Finale (Presto) 25:25

foobar2000 1.3.7 / Замер динамического диапазона (DR) 1.1.1
Дата отчёта: 2017-02-08 16:40:17

––––––––––––––––––––––––––––––––––––––––
Анализ: Yury Martynov, Performer - Ludwig van Beethoven, Composer / Yury Martynov : Beethoven: Symphony No. 9 (Liszt Piano Transcription)
––––––––––––––––––––––––––––––––––––––––

DR Пики RMS Продолжительность трека
––––––––––––––––––––––––––––––––––––––––
DR14 -1.07 дБ -19.72 дБ 14:56 1-Symphony No. 9 in D Minor, Op. 125:Symphony No. 9 in D Minor, Op. 125: I. Allegro ma non troppo, un poco maestoso (Piano Transcription by Franz Liszt, S. 464/9)
DR14 -1.13 дБ -20.12 дБ 14:29 2-Symphony No. 9 in D Minor, Op. 125:Symphony No. 9 in D Minor, Op. 125: II. Molto vivace (Piano Transcription by Franz Liszt, S. 464/9)
DR20 -2.56 дБ -29.71 дБ 16:01 3-Symphony No. 9 in D Minor, Op. 125:Symphony No. 9 in D Minor, Op. 125: III. Adagio molto e cantabile (Piano Transcription by Franz Liszt, S. 464/9)
DR14 -1.08 дБ -19.97 дБ 25:25 4-Symphony No. 9 in D Minor, Op. 125:Symphony No. 9 in D Minor, Op. 125: IV. Finale (Presto) [Piano Transcription by Franz Liszt, S. 464/9]
––––––––––––––––––––––––––––––––––––––––

Количество треков: 4
Реальные значения DR: DR16

Частота: 48000 Гц
Каналов: 2
Разрядность: 24
Битрейт: 1215 кбит/с
Кодек: FLAC
================================================================================


Thanks to the Original customer.