A-P Connection - Wide Vision (2021) [Official Digital Download]

Posted By: El Misha
A-P Connection - Wide Vision (2021) [Official Digital Download]

A-P Connection - Wide Vision (2021)
FLAC (tracks) 24-bit/44.10 kHz | Time - 01:19:11 | 958 MB
Studio Master, Official Digital Download | Artwork: Front cover

A-P Connection is an autoproduced French Funk music duo founded in 2012 in Reims.

Growing up, Antoine Perez and Pierre Bonnet were mostly influenced by the funk and disco music of the 70’s and 80’s. It was obvious that playing music would become part of their lives.

At the early beginning they played only guitar and bass, yet this quickly evolved into a wider variety of instruments allowing them to create their own compositions.

Wide Vision reflects the versatility of our soul and music. Many very talented artists have joined us to make this new opus an exceptional blend of music.

​16 new songs featuring amazing vocalists : Adam Chini, Ava Baya, Chuck New, Denise L. Wilkinson (from Ladies of SKYY), Howard Johnson, Heather Haywood (From The Cool Notes), Joyce Sims, Junior, Matthew Clanton,



Tracklist:

01. A-P Groove (3:17)
02. Thin Line (4:29)
03. Lifetime to Find (4:57)
04. Love at First Sight (4:25)
05. 1,2,3,4 (The Beat Goes On) (4:30)
06. 21 Pleasure (4:45)
07. Positively Happy (6:13)
08. All for You (3:54)
09. Girl of My Dreams (4:59)
10. Today, Tomorrow, Forever (5:00)
11. Millionaire (4:35)
12. Idylle (5:32)
13. Nothing We Can't Do Together (4:12)
14. What Kind? (5:02)
15. Masquerade (4:32)
16. A-Phony (8:58)

foobar2000 1.4 / Dynamic Range Meter 1.1.1
log date: 2021-06-08 05:38:10

––––––––––––––––––––––––––––––––––––––––
Analyzed: A-P Connection / Wide Vision
––––––––––––––––––––––––––––––––––––––––

DR Peak RMS Duration Track
––––––––––––––––––––––––––––––––––––––––
DR8 0.00 dB -9.50 dB 3:17 01-A-P Groove
DR7 0.00 dB -7.83 dB 4:29 02-Thin Line
DR6 0.00 dB -7.91 dB 4:57 03-Lifetime to Find
DR7 0.00 dB -8.96 dB 4:25 04-Love at First Sight
DR6 0.00 dB -7.77 dB 4:30 05-1,2,3,4 (The Beat Goes On)
DR7 0.00 dB -9.23 dB 4:45 06-21 Pleasure
DR6 0.00 dB -7.26 dB 6:13 07-Positively Happy
DR6 0.00 dB -7.29 dB 3:54 08-All for You
DR6 0.00 dB -7.87 dB 4:59 09-Girl of My Dreams
DR6 0.00 dB -6.99 dB 5:00 10-Today, Tomorrow, Forever
DR7 0.00 dB -8.04 dB 4:35 11-Millionaire
DR7 0.00 dB -8.77 dB 5:32 12-Idylle
DR7 0.00 dB -7.71 dB 4:12 13-Nothing We Can't Do Together
DR6 0.00 dB -7.95 dB 5:02 14-What Kind?
DR6 0.00 dB -6.99 dB 4:32 15-Masquerade
DR9 0.00 dB -10.07 dB 8:58 16-A-Phony
––––––––––––––––––––––––––––––––––––––––

Number of tracks: 16
Official DR value: DR7

Samplerate: 44100 Hz
Channels: 2
Bits per sample: 24
Bitrate: 1611 kbps
Codec: FLAC
================================================================================



Thanks to the Original customer!