Angus & Julia Stone - Snow (2017) [Official Digital Download]

Posted By: delpotro
Angus & Julia Stone - Snow (2017) [Official Digital Download]

Angus & Julia Stone - Snow (2017)
FLAC (tracks) 24-bit/44.1 kHz | Time - 52:30 minutes | 564 MB
Studio Master, Official Digital Download | Artwork: Front Cover, Digital Booklet

The Sydney-born siblings produced and largely engineered Snow themselves, in Angus's cottage studio, Belafonte, in the Byron Bay hinterland. “It was quite magical because Angus and I have never spent that much time together, just the two of us,” says Julia. “The last phase of writing and recording was just eight weeks of him and me and the quiet of the land. It was a beautiful time.” Since they began in 2006, Angus & Julia Stone have amassed multi-platinum sales and numerous ARIA awards at home, and won a fanbase of millions over tours of the UK, Europe & North America.
Tracklist:
01. Snow
02. Oakwood
03. Chateau
04. Cellar Door
05. Sleep Alone
06. Make It out Alive
07. Who Do You Think You Are
08. Nothing Else
09. My House Your House
10. Bloodhound
11. Baudelaire
12. Sylvester Stallone

foobar2000 1.1.10 / Dynamic Range Meter 1.1.1
log date: 2017-09-15 13:43:48
––––––––––––––––––––––––––––––––––––––––
Analyzed: Angus, Julia Stone / Snow
––––––––––––––––––––––––––––––––––––––––
DR Peak RMS Duration Track
––––––––––––––––––––––––––––––––––––––––
DR6 -0.27 dB -8.20 dB 4:12 ?-Snow
DR6 -0.33 dB -6.94 dB 3:43 ?-Oakwood
DR5 -0.38 dB -7.55 dB 4:34 ?-Chateau
DR5 -0.30 dB -6.21 dB 4:41 ?-Cellar Door
DR5 -0.21 dB -6.71 dB 4:30 ?-Sleep Alone
DR7 -0.42 dB -11.11 dB 3:17 ?-Make It out Alive
DR5 -0.41 dB -7.32 dB 6:51 ?-Who Do You Think You Are
DR8 -0.37 dB -11.18 dB 4:24 ?-Nothing Else
DR5 -0.27 dB -8.33 dB 4:43 ?-My House Your House
DR6 -0.28 dB -8.16 dB 3:58 ?-Bloodhound
DR6 -0.32 dB -8.37 dB 4:14 ?-Baudelaire
DR8 -0.28 dB -9.61 dB 3:23 ?-Sylvester Stallone
––––––––––––––––––––––––––––––––––––––––
Number of tracks: 12
Official DR value: DR6
Samplerate: 44100 Hz
Channels: 2
Bits per sample: 24
Bitrate: 1425 kbps
Codec: FLAC
================================================================================

Thanks to the Original customer pirs18 !