Tags
Language
Tags

Al Di Meola - Flesh On Flesh (2002) MCH PS3 ISO + DSD64 + Hi-Res FLAC

Posted By: HDAtall
Al Di Meola - Flesh On Flesh (2002) MCH PS3 ISO + DSD64 + Hi-Res FLAC

Al Di Meola - Flesh On Flesh (2002)
PS3 Rip | SACD ISO | DST64 2.0 & 5.1 > 1-bit/2.8224 MHz | 51:10 minutes | Scans included | 3,35 GB
or DSD64 2.0 Stereo (from SACD-ISO to Tracks.dsf) > 1-bit/2.8224 MHz | Full Scans included | 1,43 GB
or FLAC 2.0 Stereo (carefully converted & encoded to tracks) 24bit/96 kHz | Scans included | 1,19 GB
Features Stereo and Multichannel Surround Sound | Telarc # SACD-63543

Flesh on Flesh is a 2002 album by Italian-American jazz fusion and Latin jazz guitarist Al Di Meola. The album contains new compositions and reworkings of older ones as well.

Al di Meola continues to broaden his musical horizons with Flesh on Flesh, his fourth release for the Telarc recording label. The great guitarist is joined by two members of his World Sinfonia acoustic group – Gumbi Ortiz on percussion and Mario Parmisano on keyboards – in addition to such stellar musicians as Gonzalo Rubalcaba, flutist Alejandro Santos, and bassist Anthony Jackson, who recorded with di Meola on his best-selling Elegant Gypsy album in the mid-'80s. Offering classic guitar lines on an array of guitars (including a vintage Les Paul, Fender Stratocaster, and Conde-Romano acoustic), di Meola is memorable, timeless, and true to the beauty, culture and sensual imagery that inspired him to compose and arrange these eight great songs. Each song is a masterpiece, and such compositions as "Flesh on Flesh" (which features him on five different instruments), "Zona Desperata," and "Fugata" (which showcases di Meola trading with Gonzalo Rubalcaba on their Fender Rhodes solo in part three) are just three of the musical statements befitting all who've been lucky enough to see or hear di Meola's phenomenal sound "live." To hear that same energy and excitement recorded "live" on Flesh on Flesh is especially gratifying since the music is developed and takes place in a new context, space, and time. You'll find that every graceful musical curve, every dynamic concept, every technological update heard on Flesh on Flesh is a celebration of new forms and functions, of strict rhythmic reinterpretation and the inimitable di Meola sound and guitar virtuosity. A must-have.

Tracklist:

01. Zona Desperata
02. Innamorata
03. Meninas
04. Flesh on Flesh
05. Fugata
06. Deep and Madly
07. Saffire Soleil
08. Señor Mouse

Personnel
Al Di Meola – guitar
Mario Parmisano – keyboards
Anthony Jackson – bass
Ernie Adams – drums
Gumbi Ortiz – percussion
Alejandro Santos – flutes
Gonzalo Rubalcaba – Fender Rhodes on "1 & 5"

foobar2000 1.6.6 / Dynamic Range Meter 1.1.1

––––––––––––––––––––––––––––––––––––––––
Analyzed: Al Di Meola / Flesh on Flesh
––––––––––––––––––––––––––––––––––––––––

DR Peak RMS Duration Track
––––––––––––––––––––––––––––––––––––––––
DR12 -5.42 dB -19.62 dB 9:24 01-Zona Desperata
DR12 -5.46 dB -20.25 dB 8:40 02-Innamorata
DR10 -5.40 dB -19.23 dB 5:42 03-Meninas
DR11 -5.44 dB -18.99 dB 5:58 04-Flesh on Flesh
DR12 -4.49 dB -19.79 dB 5:46 05-Fugata
DR12 -5.45 dB -20.41 dB 1:52 06-Deep and Madly
DR11 -5.43 dB -18.82 dB 4:13 07-Saffire Soleil
DR13 -5.46 dB -22.15 dB 9:34 08-Señor Mouse
––––––––––––––––––––––––––––––––––––––––

Number of tracks: 8
Official DR value: DR12

Samplerate: 2822400 Hz / PCM Samplerate: 176400 Hz
Channels: 6
Bits per sample: 1
Bitrate: 16934 kbps
Codec: DST64
================================================================================

––––––––––––––––––––––––––––––––––––––––
Analyzed: Al Di Meola / Flesh on Flesh
––––––––––––––––––––––––––––––––––––––––

DR Peak RMS Duration Track
––––––––––––––––––––––––––––––––––––––––
DR7 -5.43 dB -14.83 dB 9:24 01-Zona Desperata
DR7 -5.47 dB -14.54 dB 8:40 02-Innamorata
DR8 -5.66 dB -15.23 dB 5:42 03-Meninas
DR7 -5.42 dB -13.93 dB 5:58 04-Flesh on Flesh
DR7 -5.58 dB -15.45 dB 5:46 05-Fugata
DR10 -5.36 dB -17.33 dB 1:52 06-Deep and Madly
DR8 -5.59 dB -15.25 dB 4:13 07-Saffire Soleil
DR9 -5.40 dB -17.20 dB 9:34 08-Señor Mouse
––––––––––––––––––––––––––––––––––––––––

Number of tracks: 8
Official DR value: DR8

Samplerate: 2822400 Hz / PCM Samplerate: 176400 Hz
Channels: 2
Bits per sample: 1
Bitrate: 5645 kbps
Codec: DST64


Thanks to the Origianl ripper!
Uncompressed SACD ISO size > 3,78 GB
>