Alain Planès - Frédéric Chopin: Complete Nocturnes (2021) [Official Digital Download 24/96]

Posted By: delpotro
Alain Planès - Frédéric Chopin:  Complete Nocturnes (2021) [Official Digital Download 24/96]

Alain Planès - Frédéric Chopin: Complete Nocturnes (2021)
FLAC (tracks) 24-bit/96 kHz | Front Cover & Digital Booklet | Time - 114:08 minutes | 1,86 GB
Classical | Label: harmonia mundi, Official Digital Download

His Debussy and Chopin recordings for harmonia mundi already offer ample evidence that Alain Planès is highly adept at selecting a period instrument best suited for the repertoire.

For this complete recording of the Chopin Nocturnes, he has chosen a superb 1836 Pleyel - dating from the same decade during which many of these masterpieces saw the light of day.

With this instrument’s unique colour palette at his fingertips, our poet of the keyboard deftly recreates the delicate magic of these immortal pages in which the composer, fascinated by the art of bel canto, developed a new approach to making the piano sing.

Tracklist:
01. Chopin: Nocturne No. 1 in B-Flat Minor, Op. 9 No. 1
02. Chopin: Nocturne No. 2 in E-Flat Major, Op. 9 No. 2
03. Chopin: Nocturne No. 3 in B Major, Op. 9 No. 3
04. Chopin: Nocturne No. 4 in F Major, Op. 15 No. 1
05. Chopin: Nocturne No. 5 in F-Sharp Major, Op. 15 No. 2
06. Chopin: Nocturne No. 6 in G Minor, Op. 15 No. 3
07. Chopin: Nocturne No. 15 in F Minor, Op. 55 No. 1
08. Chopin: Nocturne No. 16 in E-Flat Major, Op. 55 No. 2
09. Chopin: Nocturne No. 7 in C-Sharp Minor, Op. 27 No. 1
10. Chopin: Nocturne No. 8 in D-Flat Major, Op. 27 No. 2
11. Chopin: Nocturne No. 9 in B Major, Op. 32 No. 1
12. Chopin: Nocturne No. 10 in A-Flat Major, Op. 32 No. 2
13. Chopin: Nocturne No. 11 in G Minor, Op. 37 No. 1
14. Chopin: Nocturne No. 12 in G Major, Op. 37 No. 2
15. Chopin: Nocturne No. 17 in B Major, Op. 62 No. 1
16. Chopin: Nocturne No. 18 in E Major, Op. 62 No. 2
17. Chopin: Nocturne No. 13 in C Minor, Op. 48 No. 1
18. Chopin: Nocturne No. 14 in F-Sharp Minor, Op. 48 No. 2
19. Chopin: Nocturne No. 21 in C Minor, Op. posth.
20. Chopin: Nocturne No. 19 in E Minor, Op. posth. 72 No. 1
21. Chopin: Nocturne No. 20 in C-Sharp Minor, Op. Posth.

foobar2000 1.4.1 / Dynamic Range Meter 1.1.1
log date: 2021-06-23 17:09:19

––––––––––––––––––––––––––––––––––––––––
Analyzed: Alain Planès / Frédéric Chopin: Complete Nocturnes
––––––––––––––––––––––––––––––––––––––––

DR Peak RMS Duration Track
––––––––––––––––––––––––––––––––––––––––
DR14 -3.75 dB -23.49 dB 5:49 01-Chopin: Nocturne No. 1 in B-Flat Minor, Op. 9 No. 1
DR14 -4.94 dB -24.73 dB 4:32 02-Chopin: Nocturne No. 2 in E-Flat Major, Op. 9 No. 2
DR15 -2.37 dB -22.63 dB 6:51 03-Chopin: Nocturne No. 3 in B Major, Op. 9 No. 3
DR14 -1.15 dB -21.85 dB 4:51 04-Chopin: Nocturne No. 4 in F Major, Op. 15 No. 1
DR13 -2.89 dB -22.27 dB 3:49 05-Chopin: Nocturne No. 5 in F-Sharp Major, Op. 15 No. 2
DR16 -1.99 dB -25.25 dB 4:10 06-Chopin: Nocturne No. 6 in G Minor, Op. 15 No. 3
DR14 -1.32 dB -24.00 dB 5:37 07-Chopin: Nocturne No. 15 in F Minor, Op. 55 No. 1
DR14 -6.43 dB -24.60 dB 5:26 08-Chopin: Nocturne No. 16 in E-Flat Major, Op. 55 No. 2
DR13 -1.31 dB -20.55 dB 5:20 09-Chopin: Nocturne No. 7 in C-Sharp Minor, Op. 27 No. 1
DR15 -0.75 dB -23.35 dB 6:15 10-Chopin: Nocturne No. 8 in D-Flat Major, Op. 27 No. 2
DR18 -0.78 dB -24.42 dB 5:02 11-Chopin: Nocturne No. 9 in B Major, Op. 32 No. 1
DR14 -1.32 dB -21.89 dB 5:44 12-Chopin: Nocturne No. 10 in A-Flat Major, Op. 32 No. 2
DR14 -7.09 dB -26.89 dB 6:31 13-Chopin: Nocturne No. 11 in G Minor, Op. 37 No. 1
DR13 -6.52 dB -24.03 dB 5:51 14-Chopin: Nocturne No. 12 in G Major, Op. 37 No. 2
DR14 -5.47 dB -25.81 dB 7:08 15-Chopin: Nocturne No. 17 in B Major, Op. 62 No. 1
DR13 -3.65 dB -22.15 dB 6:11 16-Chopin: Nocturne No. 18 in E Major, Op. 62 No. 2
DR14 -0.63 dB -20.35 dB 6:08 17-Chopin: Nocturne No. 13 in C Minor, Op. 48 No. 1
DR15 -2.96 dB -23.46 dB 7:13 18-Chopin: Nocturne No. 14 in F-Sharp Minor, Op. 48 No. 2
DR13 -8.74 dB -26.63 dB 3:08 19-Chopin: Nocturne No. 21 in C Minor, Op. posth.
DR13 -3.68 dB -23.79 dB 4:13 20-Chopin: Nocturne No. 19 in E Minor, Op. posth. 72 No. 1
DR14 -7.21 dB -26.55 dB 4:20 21-Chopin: Nocturne No. 20 in C-Sharp Minor, Op. Posth.
––––––––––––––––––––––––––––––––––––––––

Number of tracks: 21
Official DR value: DR14

Samplerate: 96000 Hz
Channels: 2
Bits per sample: 24
Bitrate: 2311 kbps
Codec: FLAC
================================================================================


Thanks to the Original customer!