Tags
Language
Tags

Alan Hewitt & One Nation - 2021 (2021) [Official Digital Download 24/48]

Posted By:
Alan Hewitt & One Nation - 2021 (2021) [Official Digital Download 24/48]

Alan Hewitt & One Nation - 2021 (2021)
FLAC (tracks) 24-bit/48 kHz | Front Cover | Time - 43:11 minutes | 559 MB
Progressive Rock | Label: BFD Records, Official Digital Download

Alan Hewitt & One Nation released their first album “Evolution” in 2015 on Sony, which is a fusion of rock, jazz & prog with a return back to Alan’s roots, where he was inspired by Chick Corea’s Return to Forever, Herbie Hancock and Weather Report. It won 2 Global Music Awards and a Grammy nomination. Their upcoming second release “2021” ventures more into prog rock with lush vocals and sweeping arrangements reminiscent of early English progressive music but still retaining their hard-driving fusion elements. This supergroup line-up that has too many credits to list, includes founder and composer, Alan Hewitt (The Moody Blues, John Lodge) on keys & vocals, Duffy King (John Lodge, Matthias Reim) on guitars & vocals, David C. Johnson (The Neville Bros.) on bass & vocals, and Billy Ashbaugh (The Moody Blues, Pat Benatar, John Lodge, Nsync) on drums. As a group they infuse their influences and personalities to make ALAN HEWITT & ONE NATION one musically powerful band that you’re going want to experience.

Tracklist:
1. ONE STEP CLOSER (06:53)
2. HARD RAIN (04:39)
3. VOLT (04:37)
4. WE'RE ONE NATION (05:58)
5. HIGH ABOVE (04:17)
6. THE ENIGMA (05:00)
7. MAD HATTER'S ILLUSION (04:46)
8. RETURN TO ORION (06:58)

foobar2000 1.4.1 / Dynamic Range Meter 1.1.1
log date: 2021-09-17 08:29:25

––––––––––––––––––––––––––––––––––––––––
Analyzed: Alan Hewitt & One Nation / 2021
––––––––––––––––––––––––––––––––––––––––

DR Peak RMS Duration Track
––––––––––––––––––––––––––––––––––––––––
DR9 -0.10 dB -10.58 dB 6:54 01-ONE STEP CLOSER
DR9 -0.10 dB -10.04 dB 4:40 02-HARD RAIN
DR9 -0.10 dB -10.65 dB 4:38 03-VOLT
DR8 -0.10 dB -9.66 dB 5:58 04-WE'RE ONE NATION
DR9 -0.10 dB -11.47 dB 4:17 05-HIGH ABOVE
DR8 -0.10 dB -10.54 dB 5:01 06-THE ENIGMA
DR10 -0.10 dB -11.40 dB 4:47 07-MAD HATTER'S ILLUSION
DR7 -0.10 dB -9.42 dB 6:59 08-RETURN TO ORION
––––––––––––––––––––––––––––––––––––––––

Number of tracks: 8
Official DR value: DR9

Samplerate: 48000 Hz
Channels: 2
Bits per sample: 24
Bitrate: 1739 kbps
Codec: FLAC
================================================================================


Thanks to the Original customer!