Juliette Hurel & Hélène Couvert - Compositrices : À l'aube du XXe siècle (2020) [Official Digital Download 24/48]

Posted By: SERTiL
Juliette Hurel & Hélène Couvert - Compositrices : À l'aube du XXe siècle (2020) [Official Digital Download 24/48]

Juliette Hurel & Hélène Couvert - Compositrices : À l'aube du XXe siècle (2020)
FLAC (tracks) 24-bit/48 kHz | Time - 64:15 minutes | 600 MB
Studio Master, Official Digital Download | Artwork: Digital Booklet

Juliette Hurel and Hélène Couvert, who have long enjoyed a close rapport on the concert platform and on disc, here celebrate five French women composers at the turn of the twentieth century. Countess Clémence de Grandval was the composer of some sixty songs, of which Saint-Saëns said: ‘They would certainly be famous if their composer did not have what many people regard as the irremediable defect of being a woman.’

Augusta Holmès earned the admiration of Liszt, Wagner and Saint-Saëns. To mark the Universal Exhibition of 1889, she composed a monumental work for more than a thousand musicians. During her studies at the Conservatoire, Mélanie Bonis fell madly in love with a singer, but had to marry a rich industrialist. She later returned to composition and used the pseudonym Mel Bonis, leaving her gender in doubt. Cécile Chaminade displayed extraordinary gifts at a very early age. Bizet called her ‘My little Mozart’. Lili Boulanger received her first music lessons from her sister, the famous teacher Nadia. In 1913, at the age of nineteen, she became the first woman to receive the Prix de Rome. The word ‘compositrice’ was born!

Tracklist:
01. Sonate Op. 64: I. Andantino con moto (5:05)
02. Sonate Op. 64: II. Scherzo (Vivace) (1:54)
03. Sonate Op. 64: III. Adagio (5:10)
04. Sonate Op. 64: IV. Finale (Moderato) (3:43)
05. Nocturne (3:00)
06. D'un matin de printemps (4:34)
07. Suite pour flûte et piano: I. Prélude (1:56)
08. Suite pour flûte et piano: II. Scherzo (4:53)
09. Suite pour flûte et piano: III. Menuet (4:15)
10. Suite pour flûte et piano: IV. Romance (4:29)
11. Suite pour flûte et piano: V. Final (4:42)
12. Pièce, Op. 189 (4:18)
13. Scherzo, Op. Posthume 187 (Finale) (4:34)
14. Sérénade aux étoiles, Op. 142 (5:03)
15. Trois petites pièces: Chanson (1:54)
16. Trois petites pièces: Clair de Lune (3:32)
17. Trois petites pièces: Gigue (1:23)

foobar2000 1.3.7 / Dynamic Range Meter 1.1.1
log date: 2020-01-14 22:10:48

––––––––––––––––––––––––––––––––––––––––
Analyzed: Juliette Hurel & Hélène Couvert / Compositrices : À l'aube du XXe siècle
––––––––––––––––––––––––––––––––––––––––

DR Peak RMS Duration Track
––––––––––––––––––––––––––––––––––––––––
DR13 -10.08 dB -27.33 dB 5:05 01-Sonate Op. 64: I. Andantino con moto
DR13 -7.61 dB -25.23 dB 1:54 02-Sonate Op. 64: II. Scherzo (Vivace)
DR15 -4.45 dB -25.33 dB 5:10 03-Sonate Op. 64: III. Adagio
DR13 -4.75 dB -23.52 dB 3:43 04-Sonate Op. 64: IV. Finale (Moderato)
DR13 -6.66 dB -27.34 dB 3:00 05-Nocturne
DR13 -2.57 dB -21.95 dB 4:34 06-D'un matin de printemps
DR11 -7.70 dB -24.72 dB 1:56 07-Suite pour flûte et piano: I. Prélude
DR14 -4.21 dB -23.91 dB 4:53 08-Suite pour flûte et piano: II. Scherzo
DR15 -4.62 dB -25.69 dB 4:15 09-Suite pour flûte et piano: III. Menuet
DR15 -5.17 dB -26.85 dB 4:29 10-Suite pour flûte et piano: IV. Romance
DR14 -2.42 dB -22.31 dB 4:42 11-Suite pour flûte et piano: V. Final
DR13 -8.08 dB -26.27 dB 4:18 12-Pièce, Op. 189
DR12 -6.55 dB -24.01 dB 4:34 13-Scherzo, Op. Posthume 187 (Finale)
DR13 -6.59 dB -23.45 dB 5:03 14-Sérénade aux étoiles, Op. 142
DR13 -7.35 dB -26.34 dB 1:54 15-Trois petites pièces: Chanson
DR12 -10.35 dB -28.76 dB 3:32 16-Trois petites pièces: Clair de Lune
DR14 -3.15 dB -22.18 dB 1:23 17-Trois petites pièces: Gigue
––––––––––––––––––––––––––––––––––––––––

Number of tracks: 17
Official DR value: DR13

Samplerate: 48000 Hz
Channels: 2
Bits per sample: 24
Bitrate: 1353 kbps
Codec: FLAC
================================================================================


Thanks to the Original customer.